<?xml version="1.0" standalone="no"?>
<!DOCTYPE svg PUBLIC "-//W3C//DTD SVG 1.1//EN" "http://www.w3.org/Graphics/SVG/1.1/DTD/svg11.dtd" >
<svg>
<metadata>
Created by FontForge 20090914 at Thu Jun  7 16:41:05 2018
 By www-data
Copyright &#194;&#169; 2015 by Latinotype. All rights reserved.
</metadata>
<defs>
<font id="SanaSansAlt-Black" horiz-adv-x="0" >
  <font-face 
    font-family="Sana Sans Alt Black"
    font-weight="900"
    font-stretch="normal"
    units-per-em="1000"
    panose-1="0 0 10 0 0 0 0 0 0 0"
    ascent="800"
    descent="-200"
    x-height="490"
    cap-height="690"
    bbox="-557 -283.003 1372 1142"
    underline-thickness="50"
    underline-position="-50"
    unicode-range="U+0020-U+FB02"
  />
<missing-glyph horiz-adv-x="655" 
d="M555 720v-720h-455v720h455zM457 623h-259v-526h259v526z" />
    <glyph glyph-name="fi" unicode="fi" horiz-adv-x="708" 
d="M491 595.5c-17.333 16.333 -26.002 37.833 -26.002 64.5c0 27.333 8.83301 49.166 26.5 65.499s40.834 24.5 69.501 24.5s51.667 -8.16699 69 -24.5s26 -38.166 26 -65.499c0 -26.667 -8.66699 -48.167 -26 -64.5s-40.333 -24.5 -69 -24.5
c-29.333 0 -52.666 8.16699 -69.999 24.5zM644.998 0h-170.002l1 368h-213v-368h-170v368h-75v122h75v37c0 62 16.333 111.333 49 148s80.334 55 143.001 55c48.667 0 92.334 -3.66699 131.001 -11l-11 -119c-24.667 4.66699 -48.667 7 -72 7
c-28 0 -46.833 -6.33301 -56.5 -19s-14.5 -31.667 -14.5 -57v-41h383v-490z" />
    <glyph glyph-name="fl" unicode="fl" horiz-adv-x="798" 
d="M784 17c-19.333 -8.66699 -38.6699 -15.167 -58.0029 -19.5s-42.666 -6.5 -69.999 -6.5c-52 0 -93.167 15.5 -123.5 46.5s-45.5 77.167 -45.5 138.5l1 191h-225v-367h-170v367h-75v123h75v37c0 62 16.333 111.333 49 148s80.334 55 143.001 55
c48.667 0 92.334 -3.66699 131.001 -11l-11 -119c-24.667 4.66699 -48.667 7 -72 7c-28 0 -46.833 -6.33301 -56.5 -19s-14.5 -31.667 -14.5 -57v-41h226l1 230h169l-1 -505c0 -25.333 2.5 -44.5 7.5 -57.5s12.833 -22 23.5 -27s25.667 -7.5 45 -7.5
c15.333 0 26.333 0.666992 33 2z" />
    <glyph glyph-name=".notdef" horiz-adv-x="655" 
d="M555 720v-720h-455v720h455zM457 623h-259v-526h259v526z" />
    <glyph glyph-name="space" unicode=" " horiz-adv-x="193" 
 />
    <glyph glyph-name="exclam" unicode="!" horiz-adv-x="309" 
d="M70 597l-1 123h172v-122l-22 -348h-129zM88.5 17c-18.333 18 -27.5 40 -27.5 66s9.16699 48 27.5 66s40.5 27 66.5 27c25.333 0 47.166 -9 65.499 -27s27.5 -40 27.5 -66s-9.16699 -48 -27.5 -66s-40.166 -27 -65.499 -27c-26 0 -48.167 9 -66.5 27z" />
    <glyph glyph-name="quotedbl" unicode="&#x22;" horiz-adv-x="413" 
d="M36 700h146l-17 -264h-111zM231 700h145l-17 -264h-111z" />
    <glyph glyph-name="numbersign" unicode="#" horiz-adv-x="743" 
d="M171 173h-122l13 100h124l19 115h-129l13 100h132l33 202h121l-32 -202h112l33 202h121l-32 -202h120l-14 -100h-123l-18 -115h126l-14 -100h-128l-29 -175h-121l29 175h-113l-29 -175h-121zM420 273l19 115h-113l-18 -115h112z" />
    <glyph glyph-name="dollar" unicode="$" horiz-adv-x="585" 
d="M504.5 71c-31 -34.667 -74.167 -58.3252 -129.5 -70.9922v-178h-128l-1 169c-35.333 3.33301 -71 9.66602 -107 18.999s-69 21 -99 35l41 131c31.333 -16 65.333 -28.667 102 -38s70.667 -14 102 -14c30 0 53.667 6.16699 71 18.5s26 29.166 26 50.499
s-9.66699 38.166 -29 50.499s-49.666 26.166 -90.999 41.499c-42 15.333 -76.333 30.333 -103 45s-49.667 35.167 -69 61.5s-29 60.166 -29 101.499c0 56 16.167 101.167 48.5 135.5s78.5 56.166 138.5 65.499l-1 180h129l1 -176c28.667 -2.66699 54.667 -7.5 78 -14.5
s47.333 -16.5 72 -28.5l-39 -126c-57.333 26.667 -111 40 -161 40c-32 0 -56.333 -5.66699 -73 -17s-25 -28.333 -25 -51c0 -21.333 9.66699 -38.333 29 -51s50.333 -27.334 93 -44.001c42 -16.667 76.167 -32.334 102.5 -47.001s49.166 -35.167 68.499 -61.5
s29 -59.166 29 -98.499c0 -50.667 -15.5 -93.334 -46.5 -128.001z" />
    <glyph glyph-name="percent" unicode="%" horiz-adv-x="944" 
d="M603 730l107 -49l-364 -714l-108 50zM78 371c-32.667 34.667 -48.999 80.001 -48.999 136.001c0 58 17.167 104.667 51.5 140s79.166 53 134.499 53c53.333 0 96.333 -17 129 -51s49 -78.667 49 -134c0 -38.667 -7.83301 -72.834 -23.5 -102.501s-37.5 -52.667 -65.5 -69
s-60 -24.5 -96 -24.5c-54 0 -97.333 17.333 -130 52zM257.001 435.501c10 17 15 41.5 15 73.5s-5.33301 56.667 -16 74s-25.667 26 -45 26c-20 0 -35.333 -8.66699 -46 -26s-16 -42 -16 -74s5.5 -56.5 16.5 -73.5s26.833 -25.5 47.5 -25.5c19.333 0 34 8.5 44 25.5z
M606.001 38.501c-32.667 34.333 -48.999 79.835 -48.999 136.502c0 57.333 17.167 103.666 51.5 138.999s79.166 53 134.499 53c53.333 0 96.333 -16.833 129 -50.5s49 -78.167 49 -133.5c0 -38.667 -7.83301 -72.834 -23.5 -102.501s-37.5 -52.667 -65.5 -69
s-60.333 -24.5 -97 -24.5c-53.333 0 -96.333 17.167 -129 51.5zM784.502 103.003c10.333 17.333 15.5 41.666 15.5 72.999c0 32 -5.33301 56.667 -16 74s-25.667 26 -45 26c-20 0 -35.333 -8.66699 -46 -26s-16 -42 -16 -74c0 -31.333 5.5 -55.666 16.5 -72.999
s26.833 -26 47.5 -26c18.667 0 33.167 8.66699 43.5 26z" />
    <glyph glyph-name="ampersand" unicode="&#x26;" horiz-adv-x="739" 
d="M692 -67c-85.333 54 -148.335 94.998 -189.002 122.998c-56.667 -44 -126.667 -66 -210 -66c-81.333 0 -144.666 16.5 -189.999 49.5s-68 77.833 -68 134.5c0 37.333 8.83301 70.833 26.5 100.5s46.834 58.167 87.501 85.5c-42 59.333 -63 113.666 -63 162.999
c0 32.667 8 62.334 24 89.001s38.833 47.834 68.5 63.501s64.167 23.834 103.5 24.501c57.333 0 102.166 -15.167 134.499 -45.5s48.5 -69.833 48.5 -118.5c0 -40 -11.833 -76.167 -35.5 -108.5s-60.5 -63.5 -110.5 -93.5c40 -38.667 90.667 -79.667 152 -123
c14 28 21 57 21 87l-1 92h238v-104h-108c-5.33301 -56.667 -20.666 -106 -45.999 -148l171 -110zM230.998 560.998c-14 -14.667 -21 -32.667 -21 -54c0 -26.667 12.333 -57.667 37 -93c38 20 64.667 38 80 54s23 33.667 23 53s-5.5 34.5 -16.5 45.5s-26.833 16.5 -47.5 16.5
c-22.667 0 -41 -7.33301 -55 -22zM391.998 133.998c-70 52 -126.334 99.333 -169.001 142c-29.333 -24 -44 -51.667 -44 -83c0 -24.667 9.83301 -44.167 29.5 -58.5s49.167 -21.5 88.5 -21.5c36.667 0 68.334 7 95.001 21z" />
    <glyph glyph-name="quotesingle" unicode="'" horiz-adv-x="196" 
d="M18 700h145l-17 -264h-111z" />
    <glyph glyph-name="parenleft" unicode="(" horiz-adv-x="370" 
d="M96 -3c-32 86.667 -48 175.332 -48 265.999s16 179.334 48 266.001s78.333 166.667 139 240l111 -49c-46 -72.667 -81 -148 -105 -226s-36 -155 -36 -231c0 -75.333 12 -152 36 -230s59 -153.667 105 -227l-111 -49c-60.667 73.333 -107 153.333 -139 240z" />
    <glyph glyph-name="parenright" unicode=")" horiz-adv-x="370" 
d="M24 -194c46 73.333 81 149.002 105 227.002s36 154.667 36 230c0 76 -12 153 -36 231s-59 153.333 -105 226l111 49c60.667 -73.333 107 -153.333 139 -240s48 -175.334 48 -266.001s-16 -179.334 -48 -266.001s-78.333 -166.667 -139 -240z" />
    <glyph glyph-name="asterisk" unicode="*" horiz-adv-x="451" 
d="M285 492l131 -52l-55 -95l-110 88l21 -140h-110l21 140l-109 -88l-55 95l131 52l-131 51l55 95l110 -88l-22 141h110l-21 -140l110 87l55 -95z" />
    <glyph glyph-name="plus" unicode="+" horiz-adv-x="546" 
d="M206 211h-166v120h166v169h136v-169h165v-120h-165v-172h-136v172z" />
    <glyph glyph-name="comma" unicode="," horiz-adv-x="276" 
d="M72 -134c15.333 26.667 26 47.501 32 62.501s9 30.5 9 46.5c0 8 -0.333008 14 -1 18c-18.667 5.33301 -33.667 15.833 -45 31.5s-17 34.167 -17 55.5c0 28 8.33301 50.5 25 67.5s39 25.5 67 25.5c28.667 0 51.5 -8.83301 68.5 -26.5s25.5 -42.834 25.5 -75.501
c0.666992 -34 -7 -71.5 -23 -112.5s-34.667 -76.833 -56 -107.5z" />
    <glyph glyph-name="hyphen" unicode="-" horiz-adv-x="422" 
d="M48 332h326v-120h-326v120z" />
    <glyph glyph-name="period" unicode="." horiz-adv-x="289" 
d="M76.5 148c17 16.667 39.167 25 66.5 25s49.5 -8.33301 66.5 -25s25.5 -38.667 25.5 -66s-8.5 -49.5 -25.5 -66.5s-39.167 -25.5 -66.5 -25.5s-49.5 8.5 -66.5 25.5s-25.5 39.167 -25.5 66.5s8.5 49.333 25.5 66z" />
    <glyph glyph-name="slash" unicode="/" horiz-adv-x="472" 
d="M328 763l133 -43l-309 -822l-135 42z" />
    <glyph glyph-name="zero" unicode="0" horiz-adv-x="632" 
d="M154.5 38c-43.667 32 -76.001 75.002 -97.001 129.002s-31.5 113.667 -31.5 179c0 66 10.5 126 31.5 180s53.333 97 97 129s97.834 48 162.501 48c66 0 120.5 -16.333 163.5 -49s74.667 -75.834 95 -129.501s30.5 -112.834 30.5 -177.501
c0.666992 -68.667 -9.66602 -130 -30.999 -184s-53.833 -96.333 -97.5 -127s-97.167 -46 -160.5 -46c-64.667 0 -118.834 16 -162.501 48zM408.999 181.502c22.667 39 34 94.167 34 165.5c0 70 -11.333 124.333 -34 163s-53.334 58 -92.001 58
c-40 0 -71.333 -19.333 -94 -58s-34 -93 -34 -163c0 -71.333 11.333 -126.5 34 -165.5s54 -58.5 94 -58.5c38.667 0 69.334 19.5 92.001 58.5z" />
    <glyph glyph-name="one" unicode="1" horiz-adv-x="531" 
d="M503 128l-15 -128h-444v128h156v431h-150v121l254 10h62v-562h137z" />
    <glyph glyph-name="two" unicode="2" horiz-adv-x="605" 
d="M49 111l65.002 55.9971c66 56.667 115.167 100.334 147.5 131.001s57.666 59.834 75.999 87.501s27.5 55.167 27.5 82.5c0 29.333 -9.33301 51.5 -28 66.5s-43.334 22.5 -74.001 22.5c-46 0 -97.667 -14 -155 -42l-52 124c30.667 17.333 67.5 31.833 110.5 43.5
s85.167 17.5 126.5 17.5c76 0 137 -19.167 183 -57.5s69 -91.166 69 -158.499c0 -40 -11 -78.5 -33 -115.5s-49.333 -70.833 -82 -101.5s-77 -69 -133 -115l-27 -22h286l-16 -130h-491v111z" />
    <glyph glyph-name="three" unicode="3" horiz-adv-x="591" 
d="M147 4.5c-37.333 9.66699 -69.666 21.167 -96.999 34.5l40 125c53.333 -26.667 110.333 -40 171 -40c36 0 64.333 8 85 24s31 36.333 31 61c0 24 -13.5 43 -40.5 57s-61.833 21 -104.5 21h-77l16 123h66c39.333 0 69 7.5 89 22.5s30 35.833 30 62.5
c0 19.333 -7.5 35.5 -22.5 48.5s-36.833 19.5 -65.5 19.5c-34 0 -62.833 -3.33301 -86.5 -10s-50.834 -17 -81.501 -31l-44 121c74.667 38.667 148 58 220 58c71.333 0 129.166 -15.5 173.499 -46.5s66.5 -72.833 66.5 -125.5c0 -39.333 -9 -72.833 -27 -100.5
s-45.333 -48.5 -82 -62.5v-2c41.333 -8.66699 73.5 -27.167 96.5 -55.5s34.5 -65.166 34.5 -110.499c0 -40.667 -11.5 -76.834 -34.5 -108.501s-55.5 -56.167 -97.5 -73.5s-91 -26 -147 -26c-37.333 0 -74.666 4.83301 -111.999 14.5z" />
    <glyph glyph-name="four" unicode="4" horiz-adv-x="609" 
d="M353 156h-307l-24 116l248 428l169 -10l-236 -404v-4h150l1 151h156v-151h76l-16 -126h-60v-155h-157v155z" />
    <glyph glyph-name="five" unicode="5" horiz-adv-x="587" 
d="M275 436c49.333 0 93.666 -9.16602 132.999 -27.499s70 -43.5 92 -75.5s33 -67.333 33 -106c0 -48 -11.833 -90 -35.5 -126s-58 -63.667 -103 -83s-98.5 -29 -160.5 -29c-31.333 0 -63.333 2.5 -96 7.5s-60 10.833 -82 17.5l15 134
c16.667 -4.66699 40.834 -8.83398 72.501 -12.501s60.167 -5.5 85.5 -5.5c86.667 0 130 28.333 130 85c0 36 -16.5 61.167 -49.5 75.5s-79.5 21.5 -139.5 21.5c-22.667 0 -52 -0.666992 -88 -2l-2 2l41 380h390l-1 -137h-250l-12 -119h27z" />
    <glyph glyph-name="six" unicode="6" horiz-adv-x="576" 
d="M446.5 417c31 -18.667 54.999 -45.002 71.999 -79.002s25.5 -73.333 25.5 -118c0 -46 -10.333 -86.5 -31 -121.5s-50 -62 -88 -81s-81.667 -28.5 -131 -28.5c-89.333 0 -155.166 27.667 -197.499 83s-63.5 129 -63.5 221c0 78.667 18 148.834 54 210.501
s87.667 109.834 155 144.501s146 52 236 52l10 -127c-82 0 -144.667 -13 -188 -39s-72 -67.333 -86 -124c39.333 23.333 81.333 35 126 35c40 0 75.5 -9.33301 106.5 -28zM351.499 141.498c13.667 18.333 20.499 44.168 20.499 77.501c0 29.333 -7.5 53.666 -22.5 72.999
s-33.833 29 -56.5 29c-17.333 0 -33.166 -2.83301 -47.499 -8.5s-28.5 -14.5 -42.5 -26.5c3.33301 -114.667 34 -172 92 -172c24 0 42.833 9.16699 56.5 27.5z" />
    <glyph glyph-name="seven" unicode="7" horiz-adv-x="562" 
d="M60 1l268 551v3l-48 -2h-227v139h457v-108l-285 -584z" />
    <glyph glyph-name="eight" unicode="8" horiz-adv-x="579" 
d="M81.5 613.5c20.333 29 48.8291 51.3311 85.4961 66.998s79.334 23.5 128.001 23.5c46 0 86.5 -7.33301 121.5 -22s62.167 -35.334 81.5 -62.001s29 -57.334 29 -92.001c0 -32 -9.66699 -62.167 -29 -90.5s-42.666 -50.166 -69.999 -65.499v-4
c38 -20 68.167 -44.667 90.5 -74s33.5 -62.666 33.5 -99.999c0 -40 -11.167 -75.5 -33.5 -106.5s-53.666 -55 -93.999 -72s-87.166 -25.5 -140.499 -25.5c-50.667 0 -95.5 7.83301 -134.5 23.5s-69.167 37.834 -90.5 66.501s-32 61.334 -32 98.001c0 36 10.667 70 32 102
s51.333 57 90 75v4c-29.333 14.667 -53 36.5 -71 65.5s-27 58.833 -27 89.5c0 37.333 10.167 70.5 30.5 99.5zM349.496 449.498c11 17 16.502 37.835 16.502 62.502c0 21.333 -6.83301 39.166 -20.5 53.499s-31.834 21.5 -54.501 21.5c-26 0 -45 -6.83301 -57 -20.5
s-18 -30.834 -18 -51.501c1.33301 -50.667 31.666 -84 90.999 -100c17.333 6 31.5 17.5 42.5 34.5zM214.998 261c-13.333 -18 -19.999 -38.999 -19.999 -62.999c0 -22.667 8.66699 -42.667 26 -60s40.666 -26 69.999 -26s52 8 68 24s24 35 24 57
c0 25.333 -10.667 47.666 -32 66.999s-48 33.333 -80 42c-24 -9.33301 -42.667 -23 -56 -41z" />
    <glyph glyph-name="nine" unicode="9" horiz-adv-x="577" 
d="M475 620.5c42 -54.333 63.0029 -126.168 63.0029 -215.501c0 -82 -17.833 -154.167 -53.5 -216.5s-86.667 -110.666 -153 -144.999s-144.833 -51.5 -235.5 -51.5l-9 122c83.333 0 146.666 14 189.999 42s71.333 73.333 84 136c-17.333 -10 -37 -18.333 -59 -25
s-44.667 -10 -68 -10c-40 0 -75.333 9.16699 -106 27.5s-54.334 44 -71.001 77s-25 71.5 -25 115.5c0 44.667 10.333 84 31 118s49.667 60.333 87 79s80.666 28 129.999 28c88 0 153 -27.167 195 -81.5zM223.503 405.998c15 -18.667 33.833 -27.999 56.5 -27.999
c17.333 0 33.166 2.83301 47.499 8.5s28.5 14.167 42.5 25.5c-3.33301 112 -33.666 168 -90.999 168c-24 0 -43 -9 -57 -27s-21 -43.333 -21 -76c0 -28.667 7.5 -52.334 22.5 -71.001z" />
    <glyph glyph-name="colon" unicode=":" horiz-adv-x="291" 
d="M76.5 474c17 16.667 39.167 25 66.5 25s49.5 -8.33301 66.5 -25s25.5 -38.667 25.5 -66s-8.5 -49.5 -25.5 -66.5s-39.167 -25.5 -66.5 -25.5s-49.5 8.5 -66.5 25.5s-25.5 39.167 -25.5 66.5s8.5 49.333 25.5 66zM76.5 148c17 16.667 39.167 25 66.5 25
s49.5 -8.33301 66.5 -25s25.5 -38.667 25.5 -66s-8.5 -49.5 -25.5 -66.5s-39.167 -25.5 -66.5 -25.5s-49.5 8.5 -66.5 25.5s-25.5 39.167 -25.5 66.5s8.5 49.333 25.5 66z" />
    <glyph glyph-name="semicolon" unicode=";" horiz-adv-x="313" 
d="M79 340.5c-16.667 17 -25 39.167 -25 66.5s8.33301 49.5 25 66.5s38.667 25.5 66 25.5s49.5 -8.5 66.5 -25.5s25.5 -39.167 25.5 -66.5s-8.5 -49.5 -25.5 -66.5s-39.167 -25.5 -66.5 -25.5s-49.333 8.5 -66 25.5zM74 -132c16.667 30 27.832 51.335 33.499 64.002
s8.5 26.667 8.5 42c0 3.33301 -0.666992 9.66602 -2 18.999c-18.667 5.33301 -33.667 15.833 -45 31.5s-17 34.167 -17 55.5c0 28 8.5 50.5 25.5 67.5s39.5 25.5 67.5 25.5c28.667 0 51.334 -8.83301 68.001 -26.5s25 -42.834 25 -75.501c0.666992 -34 -7 -71.333 -23 -112
s-34.667 -76 -56 -106z" />
    <glyph glyph-name="less" unicode="&#x3c;" horiz-adv-x="409" 
d="M25 222v86l351 213v-140l-188 -113v-5l188 -112v-141z" />
    <glyph glyph-name="equal" unicode="=" horiz-adv-x="558" 
d="M39 435h480v-114h-480v114zM39 229h480v-114h-480v114z" />
    <glyph glyph-name="greater" unicode="&#x3e;" horiz-adv-x="409" 
d="M29 151l188 112v5l-188 113v140l351 -213v-86l-351 -212v141z" />
    <glyph glyph-name="question" unicode="?" horiz-adv-x="418" 
d="M334 681c39.333 -33.333 59 -77.668 59 -133.001c0 -38 -6.83301 -68.167 -20.5 -90.5s-33.5 -45.5 -59.5 -69.5c-22.667 -21.333 -39.334 -40.166 -50.001 -56.499s-16 -37.5 -16 -63.5v-17h-142v33c0 27.333 3.5 50.833 10.5 70.5s15.5 35.5 25.5 47.5s23 25.333 39 40
c18 16 31.333 30.333 40 43s13 29 13 49c0 24 -8.5 41.833 -25.5 53.5s-40.833 17.5 -71.5 17.5c-31.333 0 -59.333 -3.33301 -84 -10l-17 123c15.333 3.33301 36.333 6.33301 63 9s48.334 4 65.001 4c74.667 0 131.667 -16.667 171 -50zM252.5 147.998
c18.333 -18 27.5 -40 27.5 -66s-9.16699 -48 -27.5 -66s-40.166 -27 -65.499 -27s-47.166 9 -65.499 27s-27.5 40 -27.5 66s9.16699 48 27.5 66s40.166 27 65.499 27s47.166 -9 65.499 -27z" />
    <glyph glyph-name="at" unicode="@" horiz-adv-x="938" 
d="M711.5 652c62.333 -32 109.833 -77.166 142.5 -135.499s49 -126.166 49 -203.499c0 -56 -9.16699 -105.833 -27.5 -149.5s-44.166 -77.5 -77.499 -101.5s-72.333 -36 -117 -36c-73.333 0 -122.333 21.333 -147 64c-30.667 -41.333 -76.667 -62 -138 -62
c-40.667 0 -73.167 11.167 -97.5 33.5s-36.5 50.5 -36.5 84.5c0 84 69 126 207 126h44v19c0 39.333 -23 59 -69 59c-45.333 0 -88.666 -8.66699 -129.999 -26l-35 112c63.333 26.667 126.333 40 189 40s110 -16.667 142 -50s48 -80.333 48 -141v-44
c0 -37.333 3.66699 -63.833 11 -79.5s21.333 -23.5 42 -23.5c28.667 0 51.834 17.833 69.501 53.5s26.5 75.5 26.5 119.5c0 58.667 -12.5 110.167 -37.5 154.5s-61.5 78.666 -109.5 102.999s-105.667 36.5 -173 36.5c-72.667 0 -137 -14.667 -193 -44
s-99.5 -70.5 -130.5 -123.5s-46.5 -113.833 -46.5 -182.5c0 -67.333 14.667 -126.833 44 -178.5s70.666 -91.834 123.999 -120.501s114.666 -43 183.999 -43c36.667 0 73.5 3.33301 110.5 10s67.5 15.334 91.5 26.001l27 -80c-22.667 -14.667 -55.334 -26.5 -98.001 -35.5
s-88 -13.5 -136 -13.5c-88 0 -165.5 18 -232.5 54s-119 86.667 -156 152s-55.5 141 -55.5 227c0 88.667 19.5 166.667 58.5 234s94 119.666 165 156.999s152.833 56 245.5 56c86 0 160.167 -16 222.5 -48zM513 196.001h-33c-54 0 -81 -13 -81 -39
c0 -11.333 4.16699 -20.5 12.5 -27.5s18.5 -10.5 30.5 -10.5c22 0 39.333 6 52 18s19 26 19 42v17z" />
    <glyph glyph-name="A" unicode="A" horiz-adv-x="698" 
d="M462 155h-233l-45 -155h-174l229 690h214l229 -690h-175zM426 280l-46.001 157c-1.33301 4.66699 -5.66602 19 -12.999 43l-17 61h-8c-4.66699 -18.667 -10.167 -38.667 -16.5 -60s-10.833 -36 -13.5 -44l-46 -157h160z" />
    <glyph glyph-name="B" unicode="B" horiz-adv-x="623" 
d="M60 690h256c76 0 134.833 -16 176.5 -48s62.5 -75.667 62.5 -131c0 -32.667 -7.83301 -62.5 -23.5 -89.5s-36.5 -45.833 -62.5 -56.5v-5c36 -8 64.333 -25.833 85 -53.5s31 -62.5 31 -104.5c0 -61.333 -20.5 -110.333 -61.5 -147s-97.5 -55 -169.5 -55h-294v690zM297 406
c27.333 0 49.167 8.5 65.5 25.5s24.5 37.167 24.5 60.5c0 25.333 -8 45 -24 59s-38.333 21 -67 21h-69v-166h70zM308.001 120c34.667 0 61.5 8.66699 80.5 26s28.5 40.666 28.5 69.999c0 24.667 -10 44.334 -30 59.001s-46.667 22 -80 22h-80v-177h81z" />
    <glyph glyph-name="C" unicode="C" horiz-adv-x="603" 
d="M587 29c-57.333 -26 -121.666 -38.999 -192.999 -38.999c-112.667 0 -200.334 29.333 -263.001 88s-94.334 147 -95.001 265v2v2c0.666992 72 16 134.667 46 188s72 94.166 126 122.499s116.333 42.5 187 42.5h1c66.667 0 129.667 -13 189 -39l-45 -126
c-27.333 10 -51.5 17.167 -72.5 21.5s-44.833 6.5 -71.5 6.5c-55.333 0 -100.333 -17.833 -135 -53.5s-52.334 -90.5 -53.001 -164.5c0.666992 -74.667 17.834 -129.667 51.501 -165s78.5 -53 134.5 -53c26 0 49.833 2.5 71.5 7.5s46.834 13.167 75.501 24.5z" />
    <glyph glyph-name="D" unicode="D" horiz-adv-x="675" 
d="M548 602.5c61.333 -58.333 91.999 -142.5 91.999 -252.5c0 -114 -30.667 -200.833 -92 -260.5s-148.666 -89.5 -261.999 -89.5h-226v690h225c114 0 201.667 -29.167 263 -87.5zM229.999 564v-437h57c57.333 0 102.166 19.5 134.499 58.5s48.5 94.833 48.5 167.5
c0 68 -16.167 120.167 -48.5 156.5s-77.166 54.5 -134.499 54.5h-57z" />
    <glyph glyph-name="E" unicode="E" horiz-adv-x="553" 
d="M515 129l-17 -129h-438v690h443v-129h-274v-157h225v-121h-225v-154h286z" />
    <glyph glyph-name="F" unicode="F" horiz-adv-x="537" 
d="M231 562v-158h227v-122h-227l-1 -282h-170v692h441v-130h-270z" />
    <glyph glyph-name="G" unicode="G" horiz-adv-x="668" 
d="M614 377v-333c-68 -36 -141.333 -54 -220 -54c-114 0 -202.167 29.5 -264.5 88.5s-93.5 148.5 -93.5 268.5c0 56 11.667 110.833 35 164.5s61.666 98.5 114.999 134.5s122.666 54 207.999 54c36.667 0 70.334 -3.33301 101.001 -10s61 -16.667 91 -30l-46 -124
c-28 10.667 -52.333 18 -73 22s-45 6 -73 6c-54.667 0 -99.167 -17.833 -133.5 -53.5s-51.833 -90.834 -52.5 -165.501c0.666992 -75.333 17.834 -130.666 51.501 -165.999s78.5 -53 134.5 -53c28.667 0 53 3.66699 73 11v121h-104l-1 119h252z" />
    <glyph glyph-name="H" unicode="H" horiz-adv-x="701" 
d="M640 692v-692h-170v268h-239v-268h-170v692h170v-287h239v287h170z" />
    <glyph glyph-name="I" unicode="I" horiz-adv-x="291" 
d="M230 0h-170v690h170v-690z" />
    <glyph glyph-name="J" unicode="J" horiz-adv-x="452" 
d="M86 1.5c-30 7.66699 -48.3311 13.499 -54.998 17.499l29 120c3.33301 -2 15.666 -4.83301 36.999 -8.5s40.666 -5.5 57.999 -5.5c22 0 39.167 5.66699 51.5 17s18.5 26 18.5 44v374h-142v130h312v-514c0 -57.333 -19 -102.666 -57 -135.999s-90.333 -50 -157 -50
c-33.333 0 -65 3.83301 -95 11.5z" />
    <glyph glyph-name="K" unicode="K" horiz-adv-x="639" 
d="M644 12v-13h-181l-187 279h-46v-278h-169v690h169v-288h40l188 287h171v-16l-208 -318v-10z" />
    <glyph glyph-name="L" unicode="L" horiz-adv-x="530" 
d="M230 131h283l-18 -131h-435v690h170v-559z" />
    <glyph glyph-name="M" unicode="M" horiz-adv-x="824" 
d="M60 690h158l194 -332h2l190 332h159v-690h-164v416l-157 -273h-59l-159 270v-413h-164v690z" />
    <glyph glyph-name="N" unicode="N" horiz-adv-x="706" 
d="M60 690h152l261 -402h7l-1 54l-2 348h166v-690h-145l-268 405h-5v-405h-165v690z" />
    <glyph glyph-name="O" unicode="O" horiz-adv-x="723" 
d="M541.5 654c49 -30.667 85.667 -72.834 110 -126.501s36.5 -114.834 36.5 -183.501c0 -68 -12.167 -128.667 -36.5 -182s-61 -95.333 -110 -126s-108.833 -46 -179.5 -46s-130.5 15.333 -179.5 46s-85.833 72.667 -110.5 126s-37 114 -37 182
c0 68.667 12.333 129.834 37 183.501s61.5 95.834 110.5 126.501s108.833 46 179.5 46s130.5 -15.333 179.5 -46zM475.5 182c27.667 38.667 41.5 92.667 41.5 162c0 70 -13.833 124.5 -41.5 163.5s-65.5 58.5 -113.5 58.5c-48.667 0 -86.834 -19.5 -114.501 -58.5
s-41.5 -93.5 -41.5 -163.5c0 -69.333 13.833 -123.333 41.5 -162s65.834 -58 114.501 -58c48 0 85.833 19.333 113.5 58z" />
    <glyph glyph-name="P" unicode="P" horiz-adv-x="591" 
d="M437 662c42 -18.667 74.333 -45.333 97 -80s34 -75.667 34 -123s-11.333 -88.5 -34 -123.5s-55.167 -62 -97.5 -81s-91.5 -28.5 -147.5 -28.5h-59v-226h-170v690h229c56.667 0 106 -9.33301 148 -28zM230 564.001v-212h62c32.667 0 58.5 9.66699 77.5 29s28.5 45 28.5 77
c0 32.667 -9.33301 58.5 -28 77.5s-44.667 28.5 -78 28.5h-62z" />
    <glyph glyph-name="Q" unicode="Q" horiz-adv-x="723" 
d="M499.5 -56.5c36.333 -11 89.833 -16.501 160.5 -16.501l-1 -120c-86.667 0 -156.5 9 -209.5 27s-92.333 41 -118 69s-45.167 60.333 -58.5 97c-77.333 17.333 -136.333 56.833 -177 118.5s-61 136.834 -61 225.501c0 68.667 12.333 129.834 37 183.501
s61.5 95.834 110.5 126.501s108.833 46 179.5 46s130.5 -15.333 179.5 -46s85.667 -72.834 110 -126.501s36.5 -114.834 36.5 -183.501c0 -94.667 -23 -173.667 -69 -237s-112.333 -101 -199 -113c16.667 -22.667 43.167 -39.5 79.5 -50.5zM247.5 181.999
c27.667 -38.667 65.834 -58 114.501 -58c48 0 85.833 19.333 113.5 58s41.5 92.667 41.5 162c0 70 -13.833 124.5 -41.5 163.5s-65.5 58.5 -113.5 58.5c-48.667 0 -86.834 -19.5 -114.501 -58.5s-41.5 -93.5 -41.5 -163.5c0 -69.333 13.833 -123.333 41.5 -162z" />
    <glyph glyph-name="R" unicode="R" horiz-adv-x="622" 
d="M610 12v-12.001h-178l-122 210c-6.66699 11.333 -12.5 18.833 -17.5 22.5s-14.167 5.5 -27.5 5.5h-35v-238h-170v690h238c81.333 0 146.833 -19.167 196.5 -57.5s74.5 -91.833 74.5 -160.5c0 -40.667 -10.167 -78 -30.5 -112s-48.5 -61.667 -84.5 -83v-3
c4 -3.33301 7.33301 -7.16602 10 -11.499l10 -16.5zM292 360.999c32 0 57.833 10.167 77.5 30.5s29.5 45.833 29.5 76.5c0 31.333 -9.16699 55.333 -27.5 72s-43.833 25 -76.5 25h-65v-204h62z" />
    <glyph glyph-name="S" unicode="S" horiz-adv-x="585" 
d="M433 689c30.667 -7.33301 61.999 -18.666 93.999 -33.999l-39 -126c-57.333 26.667 -111 40 -161 40c-32 0 -56.333 -5.66699 -73 -17s-25 -28.333 -25 -51c0 -21.333 10 -38.666 30 -51.999s51.333 -28.666 94 -45.999c41.333 -17.333 75.166 -33.333 101.499 -48
s49 -34.834 68 -60.501s28.5 -57.5 28.5 -95.5c0 -42 -10.833 -78.667 -32.5 -110s-52.667 -55.666 -93 -72.999s-87.5 -26 -141.5 -26c-40 0 -81.667 4.83301 -125 14.5s-83 23.167 -119 40.5l41 131c31.333 -16 65.333 -28.667 102 -38s70.667 -14 102 -14
c30 0 53.667 6.16699 71 18.5s26 29.166 26 50.499s-9.66699 38.166 -29 50.499s-49.666 26.166 -90.999 41.499c-42 15.333 -76.333 30.333 -103 45s-49.667 35.167 -69 61.5s-29 60.166 -29 101.499c0 66.667 22.833 117.834 68.5 153.501s110.167 53.5 193.5 53.5
c42.667 0 79.334 -3.66699 110.001 -11z" />
    <glyph glyph-name="T" unicode="T" horiz-adv-x="610" 
d="M593 559h-202v-559h-171v559h-202v131h575v-131z" />
    <glyph glyph-name="U" unicode="U" horiz-adv-x="696" 
d="M130 60c-49.333 46.667 -74.001 116 -74.001 208v422h171v-426c0 -46 10.333 -80.833 31 -104.5s50.667 -35.5 90 -35.5s69.333 11.833 90 35.5s31 58.5 31 104.5v426h170v-422c0 -92 -25 -161.333 -75 -208s-122.333 -70 -217 -70
c-95.333 0 -167.666 23.333 -216.999 70z" />
    <glyph glyph-name="V" unicode="V" horiz-adv-x="699" 
d="M8 673v17h168l139 -429l16 -55l15 -50h7l15 50l16 55l138 429h169v-17l-234 -673h-214z" />
    <glyph glyph-name="W" unicode="W" horiz-adv-x="977" 
d="M10 690l168.003 -0.000976562l83 -384c9.33301 -56 14.666 -98.667 15.999 -128h9c3.33301 23.333 10.666 59 21.999 107l5 21l103 386h146l102 -386c13.333 -54 22 -96.667 26 -128h10c2 38.667 7 81.334 15 128.001l85 384h167l-159 -690h-194l-95 320
c-8.66699 30 -17.334 77 -26.001 141h-9c-6 -50 -14.667 -97 -26 -141l-96 -320h-194z" />
    <glyph glyph-name="X" unicode="X" horiz-adv-x="709" 
d="M15 12l232 341v4l-216 316v17h172l147 -225h6l147 225h172v-17l-216 -316v-4l234 -341v-12h-181l-155 244h-7l-155 -244h-180v12z" />
    <glyph glyph-name="Y" unicode="Y" horiz-adv-x="684" 
d="M259 248l-250 425v17h179l153 -304h5l152 304h179v-17l-250 -425v-248h-168v248z" />
    <glyph glyph-name="Z" unicode="Z" horiz-adv-x="588" 
d="M27 102l321 454v5l-59 -2h-253v131h519v-105l-322 -452v-4l46 2h277l-18 -131h-511v102z" />
    <glyph glyph-name="bracketleft" unicode="[" horiz-adv-x="353" 
d="M59 720h269v-113h-118v-653h118v-113h-269v879z" />
    <glyph glyph-name="backslash" unicode="\" horiz-adv-x="472" 
d="M318 -102l-309 822l133 43l311 -823z" />
    <glyph glyph-name="bracketright" unicode="]" horiz-adv-x="353" 
d="M39 -159v113h118v653h-118v113h269v-879h-269z" />
    <glyph glyph-name="asciicircum" unicode="^" horiz-adv-x="532" 
d="M222 690h87l190 -351h-141l-90 188h-5l-90 -188h-141z" />
    <glyph glyph-name="underscore" unicode="_" horiz-adv-x="476" 
d="M-3 -63h481v-116h-481v116z" />
    <glyph glyph-name="a" unicode="a" horiz-adv-x="587" 
d="M88 52c-36 41.333 -54.001 99.332 -54.001 173.999c0 52.667 12.5 99.834 37.5 141.501s59.667 74.167 104 97.5s94.5 35 150.5 35c40.667 0 76.334 -3.66699 107.001 -11s62 -18.333 94 -33v-334l4 -122h-138l-17 58h-4c-35.333 -45.333 -80 -68 -134 -68
c-64 0 -114 20.667 -150 62zM328.999 126.999c12 7.33301 22.667 17.333 32 30l-1 216c-14.667 4 -27 6 -37 6c-36 0 -64.833 -13.667 -86.5 -41s-32.5 -63 -32.5 -107c0 -36.667 7 -65 21 -85s34 -30 60 -30c17.333 0 32 3.66699 44 11z" />
    <glyph glyph-name="b" unicode="b" horiz-adv-x="590" 
d="M191 62h-3l-25 -62h-111v720h170v-264h4c37.333 29.333 78.666 44 123.999 44c64.667 0 115.167 -22.5 151.5 -67.5s54.5 -107.833 54.5 -188.5s-18.167 -143.5 -54.5 -188.5s-87.166 -67.5 -152.499 -67.5c-57.333 0 -110 24.667 -158 74zM385 244
c0 85.333 -29.667 128 -89 128c-26 0 -51.333 -8 -76 -24v-206c24.667 -16.667 50 -25 76 -25c59.333 0 89 42.333 89 127z" />
    <glyph glyph-name="c" unicode="c" horiz-adv-x="477" 
d="M106 57c-48 44 -72 106.333 -72 187c0 80 24.333 142.5 73 187.5s114 67.833 196 68.5c54 0 102 -8 144 -24l-22 -125c-13.333 6 -29.833 10.833 -49.5 14.5s-37.167 5.5 -52.5 5.5c-40.667 0 -70.834 -11 -90.501 -33s-29.5 -53 -29.5 -93s9.83301 -71 29.5 -93
s49.834 -33 90.501 -33c16 0 34.5 1.83301 55.5 5.5s38.167 8.5 51.5 14.5l22 -125c-39.333 -16 -90 -24 -152 -24c-81.333 0.666992 -146 23 -194 67z" />
    <glyph glyph-name="d" unicode="d" horiz-adv-x="591" 
d="M88.5 55.5c-36.333 45 -54.5 107.833 -54.5 188.5s18.167 143.5 54.5 188.5s87.5 67.5 153.5 67.5c44 0 84.667 -14.333 122 -43h4v263h170v-720h-111l-25 62h-3c-49.333 -49.333 -102.333 -74 -159 -74c-64.667 0 -115.167 22.5 -151.5 67.5zM370 141l0.000976562 207
c-24.667 16 -50.334 24 -77.001 24c-59.333 0 -89 -42.667 -89 -128s29.667 -128 89 -128c25.333 0 51 8.33301 77 25z" />
    <glyph glyph-name="e" unicode="e" horiz-adv-x="517" 
d="M492 41c-17.333 -10.667 -42.168 -21.835 -74.501 -33.502s-74.5 -17.5 -126.5 -17.5c-56.667 0 -104.167 10.833 -142.5 32.5s-67 51.334 -86 89.001s-28.5 80.167 -28.5 127.5c0 76.667 22.333 139.334 67 188.001s111.334 73 200.001 73c36 0 68.333 -6.5 97 -19.5
s51.167 -31 67.5 -54s24.5 -49.167 24.5 -78.5c0 -53.333 -28.667 -94.666 -86 -123.999s-127 -45 -209 -47c5.33301 -20.667 18 -36.834 38 -48.501s45 -17.5 75 -17.5c50 0 97.667 11.667 143 35zM210.998 351.499c-15.333 -22.333 -22.668 -47.833 -22.001 -76.5
c48 0.666992 85.333 6.66699 112 18s40 27.333 40 48c0 13.333 -5 24 -15 32s-24 12 -42 12c-33.333 0 -57.666 -11.167 -72.999 -33.5z" />
    <glyph glyph-name="f" unicode="f" horiz-adv-x="404" 
d="M411 719l-12.001 -119c-24.667 4.66699 -46.667 7 -66 7c-28 0 -46.833 -6.33301 -56.5 -19s-14.5 -31.667 -14.5 -57v-41h115v-123h-114v-367h-170v367h-75v123h75v37c0 62 16.333 111.333 49 148s80.334 55 143.001 55c44.667 0 86.667 -3.66699 126 -11z" />
    <glyph glyph-name="g" unicode="g" horiz-adv-x="578" 
d="M166.5 -219.5c-35.667 7 -69.501 16.832 -101.501 29.499l37 120c52.667 -19.333 103.334 -29 152.001 -29c36 0 63.5 11.5 82.5 34.5s28.833 57.167 29.5 102.5v14h-3c-33.333 -41.333 -77.666 -62 -132.999 -62c-60.667 0 -108.5 20.667 -143.5 62
s-52.5 99.333 -52.5 174c0 52.667 12.5 99.834 37.5 141.501s59.667 74.167 104 97.5s94.833 35 151.5 35c40.667 0 76.167 -3.66699 106.5 -11s61.5 -18.333 93.5 -33v-412c0 -54 -10.333 -101.667 -31 -143s-50.5 -73.5 -89.5 -96.5s-84.833 -34.5 -137.5 -34.5
c-32.667 0 -66.834 3.5 -102.501 10.5zM362.999 156.999l-1 216c-14.667 3.33301 -27 5 -37 5c-36.667 0 -66.167 -13.5 -88.5 -40.5s-33.5 -62.5 -33.5 -106.5c0 -37.333 7 -65.833 21 -85.5s34.333 -29.5 61 -29.5c30 0 56 13.667 78 41z" />
    <glyph glyph-name="h" unicode="h" horiz-adv-x="597" 
d="M57 720l170 0.000976562v-268h4c22 17.333 44.167 29.666 66.5 36.999s46.5 11 72.5 11c113.333 0 170 -65.333 170 -196v-304h-170v295c0 24.667 -5 42.667 -15 54s-25.333 17 -46 17c-32 0 -59.333 -9.33301 -82 -28v-338h-170v720z" />
    <glyph glyph-name="i" unicode="i" horiz-adv-x="292" 
d="M75.5 595.5c-17.667 16.333 -26.5 37.833 -26.5 64.5s8.83301 48.334 26.5 65.001s40.834 25 69.501 25s51.834 -8.33301 69.501 -25s26.5 -38.334 26.5 -65.001s-8.83301 -48.167 -26.5 -64.5s-40.834 -24.5 -69.501 -24.5s-51.834 8.16699 -69.501 24.5zM60 490h170
v-490h-170v490z" />
    <glyph glyph-name="j" unicode="j" horiz-adv-x="306" 
d="M93.5 594.5c-17.667 16.333 -26.5 37.833 -26.5 64.5s8.83301 48.334 26.5 65.001s40.5 25 68.5 25s50.833 -8.33301 68.5 -25s26.5 -38.334 26.5 -65.001s-8.83301 -48.167 -26.5 -64.5s-40.5 -24.5 -68.5 -24.5s-50.833 8.16699 -68.5 24.5zM-32 -102
c31.333 2.66699 54.666 9.33301 69.999 20s25.833 27.167 31.5 49.5s8.5 54.5 8.5 96.5v426h170v-441c0 -68.667 -9.33301 -123.5 -28 -164.5s-47.167 -70.5 -85.5 -88.5s-88.166 -26.667 -149.499 -26z" />
    <glyph glyph-name="k" unicode="k" horiz-adv-x="590" 
d="M580 12v-12h-177l-137 193h-40v-193h-168v720h168v-412h40l128 182h171v-12l-161 -226v-7z" />
    <glyph glyph-name="l" unicode="l" horiz-adv-x="360" 
d="M100 37.5c-28.667 31 -43 77.167 -43 138.5l1 544h169v-505c0 -25.333 2 -44.5 6 -57.5s11 -22 21 -27s24.667 -7.5 44 -7.5c10.667 0 20.667 0.666992 30 2l18 -109c-20 -8 -39.5 -14.167 -58.5 -18.5s-41.5 -6.5 -67.5 -6.5c-51.333 0 -91.333 15.5 -120 46.5z" />
    <glyph glyph-name="m" unicode="m" horiz-adv-x="876" 
d="M778.5 449.5c27 -33.667 40.5 -82.167 40.5 -145.5v-304h-170v295c0 24.667 -5 42.667 -15 54s-25.333 17 -46 17c-28 0 -50.333 -8.66699 -67 -26v-40v-300h-170v295c0 24.667 -4.83301 42.667 -14.5 54s-24.834 17 -45.501 17c-26.667 0 -49 -8 -67 -24v-342h-170v490
h136l11 -52h3c26 23.333 49.833 39.5 71.5 48.5s47.167 13.5 76.5 13.5c64.667 0 110.334 -21.333 137.001 -64h11c26.667 23.333 51 39.833 73 49.5s47.333 14.5 76 14.5c59.333 0 102.5 -16.833 129.5 -50.5z" />
    <glyph glyph-name="n" unicode="n" horiz-adv-x="595" 
d="M541 304v-304.001h-170v295c0 24.667 -5.16699 42.667 -15.5 54s-25.833 17 -46.5 17c-32 0 -59.333 -9.33301 -82 -28v-338h-170v490h137l10 -53h4c28 22.667 54.5 38.834 79.5 48.501s52.5 14.5 82.5 14.5c114 0 171 -65.333 171 -196z" />
    <glyph glyph-name="o" unicode="o" horiz-adv-x="583" 
d="M425.5 468.5c38.333 -21 68.333 -50.667 90 -89s32.834 -82.5 33.501 -132.5c0 -50.667 -10.833 -95.5 -32.5 -134.5s-51.834 -69.167 -90.501 -90.5s-83 -32 -133 -32c-50.667 0 -95.5 10.5 -134.5 31.5s-69.333 50.667 -91 89s-32.834 82.5 -33.501 132.5
c0.666992 50.667 11.834 95.5 33.501 134.5s52 69.167 91 90.5s83.833 32 134.5 32c50 0 94.167 -10.5 132.5 -31.5zM227.5 341.5c-16.333 -24.333 -24.5 -56.498 -24.5 -96.498s8.16699 -72.167 24.5 -96.5s38.166 -36.5 65.499 -36.5c26 0.666992 47.167 13.167 63.5 37.5
s24.5 56.166 24.5 95.499s-8.16699 71.166 -24.5 95.499s-37.5 36.833 -63.5 37.5c-27.333 0 -49.166 -12.167 -65.499 -36.5z" />
    <glyph glyph-name="p" unicode="p" horiz-adv-x="587" 
d="M54 490h136l11 -51h4c42 40.667 89 61 141 61c64.667 0 115.167 -22.5 151.5 -67.5s54.5 -107.833 54.5 -188.5s-18.167 -143.5 -54.5 -188.5s-86.833 -67.5 -151.5 -67.5c-44.667 0 -84 14 -118 42h-4v-250h-170v710zM361 149.5c14 21.667 21 53.167 21 94.5
s-7 73 -21 95s-35 33 -63 33s-53 -11 -75 -33l-1 -189c22 -22 47.333 -33 76 -33c28 0 49 10.833 63 32.5z" />
    <glyph glyph-name="q" unicode="q" horiz-adv-x="579" 
d="M358 38l-5 0.000976562c-35.333 -32 -73.333 -48 -114 -48c-64 0 -114.167 21.167 -150.5 63.5s-54.5 101.166 -54.5 176.499c0 52.667 12.5 99.5 37.5 140.5s59.667 72.833 104 95.5s94.5 34 150.5 34c40.667 0 76.5 -3.66699 107.5 -11s62.5 -18.333 94.5 -33v-676
h-170v258zM362 157.001l-1 210c-16.667 3.33301 -29.667 5 -39 5c-36 0 -64.667 -11.5 -86 -34.5s-32 -54.5 -32 -94.5c0 -40.667 7 -72 21 -94s33.667 -33 59 -33c30 0 56 13.667 78 41z" />
    <glyph glyph-name="r" unicode="r" horiz-adv-x="398" 
d="M54 490h135.998l15 -71h3c22.667 28.667 44.834 49 66.501 61s46.834 18.667 75.501 20c8.66699 0 17 -0.666992 25 -2l-14 -140c-14 2.66699 -24 3.66699 -30 3c-42 -2 -77.667 -18.667 -107 -50v-311h-170v490z" />
    <glyph glyph-name="s" unicode="s" horiz-adv-x="465" 
d="M115.5 -1.5c-32.333 5.66699 -59.834 13.498 -82.501 23.498l22 114c45.333 -20 94 -30 146 -30c20 0 36.167 2.83301 48.5 8.5s18.833 14.167 19.5 25.5c0 11.333 -6 20.5 -18 27.5s-31.333 15.167 -58 24.5c-30.667 10.667 -56.167 21.334 -76.5 32.001s-38 26 -53 46
s-22.5 45.667 -22.5 77c0 46 20 83 60 111s93.333 42 160 42c58 0 107.667 -8.66699 149 -26l-22 -116c-40 17.333 -80 26 -120 26c-22 0 -38 -2.5 -48 -7.5s-15 -12.833 -15 -23.5c0 -12 6.5 -22.167 19.5 -30.5s33.5 -18.166 61.5 -29.499
c30.667 -12.667 55.834 -24.5 75.501 -35.5s36.667 -25.833 51 -44.5s21.5 -41.667 21.5 -69c0 -46.667 -19.5 -84 -58.5 -112s-92.167 -42 -159.5 -42c-34.667 0 -68.167 2.83301 -100.5 8.5z" />
    <glyph glyph-name="t" unicode="t" horiz-adv-x="412" 
d="M392 6c-42.667 -10 -87.332 -15 -133.999 -15c-58.667 0 -100.334 15.333 -125.001 46s-37 81.667 -37 153v177h-76v123h79l36 159l131 1v-160h116v-123h-116v-159c0 -28.667 4.33301 -49 13 -61s23.667 -18 45 -18c14.667 0 33 1 55 3z" />
    <glyph glyph-name="u" unicode="u" horiz-adv-x="594" 
d="M540 0h-137.002l-11 54h-4c-27.333 -23.333 -53.666 -39.833 -78.999 -49.5s-52.666 -14.5 -81.999 -14.5c-114 0 -171 65.333 -171 196v304h170v-295c0 -24.667 5.16699 -42.667 15.5 -54s25.833 -17 46.5 -17c30 0 57.333 9.66699 82 29v337h170v-490z" />
    <glyph glyph-name="v" unicode="v" horiz-adv-x="565" 
d="M15 478v12h170l92 -334h5l97 334h170v-12l-185 -478h-169z" />
    <glyph glyph-name="w" unicode="w" horiz-adv-x="784" 
d="M16 490h159l73 -334h6l72 334h132l72 -334h6l73 334h159l-136 -490h-169l-67 277h-8l-66 -277h-170z" />
    <glyph glyph-name="x" unicode="x" horiz-adv-x="552" 
d="M9 18l158 231v3l-157 226v12h164l97 -156h8l97 156h166v-12l-158 -226v-3l159 -231v-18h-159l-103 147h-10l-101 -147h-161v18z" />
    <glyph glyph-name="y" unicode="y" horiz-adv-x="554" 
d="M52 -103c19.333 -5.33301 39.3311 -8.00098 59.998 -8.00098c25.333 0 46.333 6.83301 63 20.5s32.334 37.834 47.001 72.501l7 18h-37l-177 478v12h169l94 -335h2l99 335h168v-12l-183 -481c-28 -76.667 -61.667 -133.667 -101 -171s-85.666 -56 -138.999 -56
c-29.333 0 -61 6 -95 18z" />
    <glyph glyph-name="z" unicode="z" horiz-adv-x="487" 
d="M34 99l229.999 266v4c-3.33301 0 -10.166 -0.333008 -20.499 -1s-21.833 -1 -34.5 -1h-160v123h400v-102l-230 -261v-4c3.33301 0 10 0.333008 20 1s22 1 36 1l185 -1l-17 -124h-409v99z" />
    <glyph glyph-name="braceleft" unicode="{" horiz-adv-x="427" 
d="M174 -124c-24 22.667 -35.999 54.3291 -35.999 94.9961v158c0 31.333 -9.16699 55.333 -27.5 72s-47.5 25.334 -87.5 26.001v117c40 0.666992 69.167 9 87.5 25s27.5 40.333 27.5 73v148c0 42 12 74.167 36 96.5s53.333 33.5 88 33.5h140v-113h-65
c-18 0 -30.5 -5.16699 -37.5 -15.5s-10.5 -25.833 -10.5 -46.5v-138c0 -33.333 -7.83301 -59.666 -23.5 -78.999s-36.167 -32.666 -61.5 -39.999v-2c56.667 -18 85 -59.667 85 -125v-144c0 -23.333 3.16699 -39.666 9.5 -48.999s19.166 -14 38.499 -14h65v-112h-142
c-33.333 0 -62 11.333 -86 34z" />
    <glyph glyph-name="bar" unicode="|" horiz-adv-x="296" 
d="M75 760h146v-990h-146v990z" />
    <glyph glyph-name="braceright" unicode="}" horiz-adv-x="427" 
d="M26 -158l0.000976562 112.005h65c19.333 0 32.166 4.66699 38.499 14s9.5 25.666 9.5 48.999v144c0 65.333 28.333 107 85 125v2c-25.333 7.33301 -45.833 20.666 -61.5 39.999s-23.5 45.666 -23.5 78.999v138c0 20.667 -3.5 36.167 -10.5 46.5s-19.5 15.5 -37.5 15.5
h-65v113h140c34.667 0 64 -11.167 88 -33.5s36 -54.5 36 -96.5v-148c0 -32.667 9.16699 -57 27.5 -73s47.5 -24.333 87.5 -25v-117c-40 -0.666992 -69.167 -9.33398 -87.5 -26.001s-27.5 -40.667 -27.5 -72v-158c0 -40.667 -12 -72.334 -36 -95.001s-52.667 -34 -86 -34
h-142z" />
    <glyph glyph-name="asciitilde" unicode="~" horiz-adv-x="624" 
d="M269.5 390c14.333 -4.66699 31.166 -11.999 50.499 -21.999c16.667 -8.66699 31.834 -15.334 45.501 -20.001s29.834 -7 48.501 -7c20 0 37.833 4.5 53.5 13.5s28.5 19.5 38.5 31.5l68 -93c-16 -19.333 -38.333 -37.166 -67 -53.499s-61.667 -24.5 -99 -24.5
c-21.333 0 -39.166 2.5 -53.499 7.5s-30.833 12.167 -49.5 21.5c-18 9.33301 -33.5 16.166 -46.5 20.499s-28.833 6.5 -47.5 6.5c-34.667 0 -65.334 -15 -92.001 -45l-69 93c16.667 20 39 38 67 54s61 24 99 24c21.333 0 39.166 -2.33301 53.499 -7z" />
    <glyph glyph-name="exclamdown" unicode="&#xa1;" horiz-adv-x="309" 
d="M88.5 349.5c-18.333 18.333 -27.5 40.5 -27.5 66.5c0 25.333 9.16699 47.166 27.5 65.499s40.166 27.5 65.499 27.5s47.166 -9.16699 65.499 -27.5s27.5 -40.166 27.5 -65.499c0 -26 -9.16699 -48.167 -27.5 -66.5s-40.166 -27.5 -65.499 -27.5
s-47.166 9.16699 -65.499 27.5zM67 -99l22 347h129l20 -347v-122h-171v122z" />
    <glyph glyph-name="cent" unicode="&#xa2;" horiz-adv-x="541" 
d="M384 -7l0.00195312 -156h-129l-1 160c-69.333 13.333 -123.333 43.333 -162 90s-58 108 -58 184s19.5 138 58.5 186s93.167 79 162.5 93l-1 162h130v-156c43.333 -3.33301 85 -12.666 125 -27.999l-25 -135c-52 14 -96 21 -132 21
c-44.667 0 -78.834 -12.5 -102.501 -37.5s-35.5 -59.833 -35.5 -104.5c0 -43.333 11.833 -77.5 35.5 -102.5s57.167 -37.5 100.5 -37.5c23.333 0 47.666 2.16699 72.999 6.5s48 10.166 68 17.499l25 -131c-45.333 -17.333 -89.333 -28 -132 -32z" />
    <glyph glyph-name="sterling" unicode="&#xa3;" horiz-adv-x="615" 
d="M597 132l-17 -132h-554v132h87v140h-95l17 107h78v31c0 193.333 97 290 291 290c66.667 0 129 -15 187 -45l-43 -117c-27.333 10.667 -51.333 18 -72 22s-44.667 6 -72 6c-45.333 0 -76.833 -13.167 -94.5 -39.5s-26.5 -65.833 -26.5 -118.5v-29h227l-18 -107h-209v-140
h314z" />
    <glyph glyph-name="currency" unicode="&#xa4;" horiz-adv-x="604" 
d="M485 210l85 -85.002l-69 -67l-77 79c-33.333 -23.333 -74.333 -35 -123 -35c-48 0 -88.333 11.333 -121 34l-77 -78l-69 67l84 84c-14 28 -21 61 -21 99c0 36.667 6.66699 69.334 20 98.001l-83 82l68 67l75 -77c34.667 23.333 76.667 35 126 35
c47.333 0 88 -11.667 122 -35l76 77l69 -67l-83 -83c12.667 -29.333 19 -61 19 -95c0 -37.333 -7 -70.666 -21 -99.999zM373 233.498c18 19 27 43.833 27 74.5c0 31.333 -9 56.5 -27 75.5s-41.667 28.5 -71 28.5c-30 0 -54.167 -9.33301 -72.5 -28s-27.5 -44 -27.5 -76
c0 -30.667 9.33301 -55.5 28 -74.5s42.667 -28.5 72 -28.5s53 9.5 71 28.5z" />
    <glyph glyph-name="yen" unicode="&#xa5;" horiz-adv-x="684" 
d="M677 673l-199 -294h128l-18 -76h-161v-64h179l-18 -76h-161v-163h-168v163h-185l17 76h168v64h-185l17 76h117l-199 294v17h179l153 -271h5l152 271h179v-17z" />
    <glyph glyph-name="brokenbar" unicode="&#xa6;" horiz-adv-x="296" 
d="M75 760h146v-391h-146v391zM75 174h146v-410h-146v410z" />
    <glyph glyph-name="section" unicode="&#xa7;" horiz-adv-x="608" 
d="M370 490c43.333 -36 78.501 -67 105.501 -93s50.167 -55.5 69.5 -88.5s29 -67.5 29 -103.5c0 -68 -23.833 -120.833 -71.5 -158.5s-116.5 -56.5 -206.5 -56.5c-96 0 -181.333 19.667 -256 59l47 113l30 -15c32 -16 60.667 -28.5 86 -37.5s53 -13.5 83 -13.5
c12 0 27.333 0.666992 46 2c-6.66699 18.667 -19 37.667 -37 57s-43.667 44 -77 74c-36 32 -65.5 60.167 -88.5 84.5s-42.5 51.333 -58.5 81s-24 60.167 -24 91.5c0 67.333 24.333 119.833 73 157.5s116.667 56.5 204 56.5c95.333 0 173.666 -15.667 234.999 -47l-44 -103
c-31.333 15.333 -60.833 26.833 -88.5 34.5s-60.167 11.5 -97.5 11.5c-26.667 0 -49 -2.33301 -67 -7c20.667 -24.667 56.667 -57.667 108 -99zM461.001 203c-0.666992 30.667 -13.1689 61.335 -37.502 92.002s-61.166 69 -110.499 115
c-31.333 29.333 -56.833 54.166 -76.5 74.499s-37.167 41.166 -52.5 62.499c-15.333 -16 -23 -36 -23 -60c0 -24.667 11.167 -50 33.5 -76s55.5 -58 99.5 -96c43.333 -38 76.833 -70 100.5 -96s38.834 -52.333 45.501 -79c14 16 21 37 21 63z" />
    <glyph glyph-name="copyright" unicode="&#xa9;" horiz-adv-x="796" 
d="M567.5 638c49.667 -28 88.335 -67.333 116.002 -118s41.5 -109 41.5 -175s-13.833 -124.5 -41.5 -175.5s-66.334 -90.5 -116.001 -118.5s-107.167 -42 -172.5 -42s-123.333 14 -174 42s-89.834 67.5 -117.501 118.5s-41.5 109.5 -41.5 175.5s13.833 124.333 41.5 175
s66.667 90 117 118s108.5 42 174.5 42c65.333 0 122.833 -14 172.5 -42zM264.001 565c-38 -20.667 -67.333 -50 -88 -88s-31 -82 -31 -132s10.5 -93.833 31.5 -131.5s50.333 -67 88 -88s81.167 -31.5 130.5 -31.5c48.667 0 91.667 10.5 129 31.5s66.333 50.333 87 88
s31 81.5 31 131.5s-10.333 93.833 -31 131.5s-49.667 67 -87 88s-80.333 31.5 -129 31.5c-49.333 0 -93 -10.333 -131 -31zM279.501 468.5c-31 -30.333 -46.5 -70.5 -46.5 -120.5c0 -50.667 15.167 -91.667 45.5 -123s71.5 -47 123.5 -47c38.667 0 71.334 6.33301 98.001 19
l-23 67c-12.667 -6 -24.167 -10 -34.5 -12s-23.833 -3 -40.5 -3c-26 0 -46.833 8.66699 -62.5 26s-23.5 41 -23.5 71c0 29.333 7.83301 53 23.5 71s36.167 27 61.5 27c17.333 0 31.166 -1 41.499 -3s21.833 -5.33301 34.5 -10l22 64c-28.667 12.667 -61 19 -97 19
c-50.667 0 -91.5 -15.167 -122.5 -45.5z" />
    <glyph glyph-name="ordfeminine" unicode="&#xaa;" horiz-adv-x="345" 
d="M45 411c-18 16 -27.001 35.667 -27.001 59c0 28.667 12.667 50.5 38 65.5s62.333 22.5 111 22.5h34v18c0 12 -4.33301 21.167 -13 27.5s-21 9.5 -37 9.5c-31.333 0 -64 -6.33301 -98 -19l-25 80c25.333 9.33301 49.333 16 72 20s47.334 6 74.001 6
c44 0 78.333 -10.833 103 -32.5s37 -51.167 37 -88.5v-186h-91l-12 35h-2c-22.667 -27.333 -54 -41 -94 -41c-28.667 0 -52 8 -70 24zM186.999 464c8.66699 7.33301 13 16.666 13 27.999v11h-26c-36.667 0 -55 -8.66699 -55 -26c0 -7.33301 3.16699 -13.166 9.5 -17.499
s13.833 -6.5 22.5 -6.5c15.333 0 27.333 3.66699 36 11z" />
    <glyph glyph-name="guillemotleft" unicode="&#xab;" horiz-adv-x="565" 
d="M26 248v19l108 184h164l-111 -188v-11l111 -188h-164zM271 248v19l108 184h164l-111 -188v-11l111 -188h-164z" />
    <glyph glyph-name="registered" unicode="&#xae;" horiz-adv-x="796" 
d="M567.5 638c49.667 -28 88.335 -67.333 116.002 -118s41.5 -109 41.5 -175s-13.833 -124.5 -41.5 -175.5s-66.334 -90.5 -116.001 -118.5s-107.167 -42 -172.5 -42s-123.333 14 -174 42s-89.834 67.5 -117.501 118.5s-41.5 109.5 -41.5 175.5s13.833 124.333 41.5 175
s66.667 90 117 118s108.5 42 174.5 42c65.333 0 122.833 -14 172.5 -42zM524.001 124.5c37.333 21 66.333 50.5 87 88.5s31 82 31 132s-10.333 93.833 -31 131.5s-49.667 67 -87 88s-80.333 31.5 -129 31.5c-49.333 0 -92.833 -10.5 -130.5 -31.5s-67 -50.333 -88 -88
s-31.5 -81.5 -31.5 -131.5s10.5 -94 31.5 -132s50.333 -67.5 88 -88.5s81.167 -31.5 130.5 -31.5c48.667 0 91.667 10.5 129 31.5zM481.001 283l56 -91.001v-3h-85l-53 91c-7.33301 10.667 -13 17.167 -17 19.5s-10.333 3.5 -19 3.5h-1v-114h-80v314h104
c38.667 0 69.167 -8.66699 91.5 -26s33.5 -41.666 33.5 -72.999c0 -18 -5.33301 -34.333 -16 -49s-24.667 -26.667 -42 -36c10 -11.333 19.333 -23.333 28 -36zM388.001 356.999c12 0 21.833 4 29.5 12s11.5 18.333 11.5 31c0 12 -3.66699 22 -11 30s-17 12 -29 12h-27v-85
h26z" />
    <glyph glyph-name="degree" unicode="&#xb0;" horiz-adv-x="341" 
d="M64.5 450c-27 26.667 -40.5 61.332 -40.5 103.999c0 43.333 13.5 78.166 40.5 104.499s62.5 39.5 106.5 39.5c43.333 0 78.333 -13.167 105 -39.5s40 -61.166 40 -104.499s-13.333 -78.166 -40 -104.499s-62 -39.5 -106 -39.5c-43.333 0 -78.5 13.333 -105.5 40z
M210.5 508.498c10.333 11.667 15.5 26.834 15.5 45.501s-5.16699 33.834 -15.5 45.501s-23.833 17.5 -40.5 17.5c-16 0 -29.167 -5.83301 -39.5 -17.5s-15.5 -26.834 -15.5 -45.501s5.16699 -33.834 15.5 -45.501s23.5 -17.5 39.5 -17.5c16.667 0 30.167 5.83301 40.5 17.5z
" />
    <glyph glyph-name="plusminus" unicode="&#xb1;" horiz-adv-x="546" 
d="M40 106h166v105h-166v120h166v169h136v-169h165v-120h-165v-105h164v-106h-466v106z" />
    <glyph glyph-name="paragraph" unicode="&#xb6;" horiz-adv-x="693" 
d="M632 0l-103 -0.00195312v591h-49v-591h-104v591h-75c-50.667 0 -90.334 -11.667 -119.001 -35s-43 -55.666 -43 -96.999c0 -44 14.333 -78.5 43 -103.5s68.334 -37.5 119.001 -37.5h27v-92h-14c-88 0 -156.667 20.5 -206 61.5s-74 98.167 -74 171.5
c0 72.667 24.667 129.334 74 170.001s118 61 206 61h318v-690z" />
    <glyph glyph-name="periodcentered" unicode="&#xb7;" horiz-adv-x="273" 
d="M59.5 315c17 16.667 39.167 25 66.5 25s49.5 -8.33301 66.5 -25s25.5 -38.667 25.5 -66s-8.5 -49.5 -25.5 -66.5s-39.167 -25.5 -66.5 -25.5s-49.5 8.5 -66.5 25.5s-25.5 39.167 -25.5 66.5s8.5 49.333 25.5 66z" />
    <glyph glyph-name="ordmasculine" unicode="&#xba;" horiz-adv-x="383" 
d="M317 660c29.333 -26.667 44 -65.334 44 -116.001c0 -50 -14.5 -88.667 -43.5 -116s-70.833 -41 -125.5 -41s-96.5 13.5 -125.5 40.5s-43.833 65.833 -44.5 116.5c0.666992 50.667 15.5 89.334 44.5 116.001s70.833 40 125.5 40c54 0 95.667 -13.333 125 -40zM150 600
c-10 -13.333 -15 -32.333 -15 -57c0 -24 5 -42.667 15 -56s24 -20 42 -20s31.833 6.66699 41.5 20s14.5 32 14.5 56c0 24.667 -4.83301 43.667 -14.5 57s-23.5 20 -41.5 20s-32 -6.66699 -42 -20z" />
    <glyph glyph-name="guillemotright" unicode="&#xbb;" horiz-adv-x="565" 
d="M26 64l111 188v11l-111 188h164l108 -184v-19l-108 -184h-164zM271 64l111 188v11l-111 188h164l108 -184v-19l-108 -184h-164z" />
    <glyph glyph-name="onequarter" unicode="&#xbc;" horiz-adv-x="964" 
d="M332 396l-11 -87h-288v87h97v205h-92v83l165 6h43v-294h86zM688 742l76 -50l-467 -742l-75 50zM799 82h-195l-18 79l136 228l116 -5l-126 -214v-2h87l1 65h98v-65h50l-12 -86h-38v-82h-99v82z" />
    <glyph glyph-name="onehalf" unicode="&#xbd;" horiz-adv-x="979" 
d="M332 396l-11 -87h-288v87h97v205h-92v83l165 6h43v-294h86zM688 742l76 -50l-467 -742l-75 50zM616 77c32.667 24.667 51 38.3359 55 41.0029c51.333 37.333 86 64.666 104 81.999s27 34.666 27 51.999c0 13.333 -5.16699 23.166 -15.5 29.499s-24.166 9.5 -41.499 9.5
c-24.667 0 -55 -7 -91 -21l-35 87c18 9.33301 40.667 17.333 68 24s54.333 10 81 10c48.667 0 87.5 -11.167 116.5 -33.5s43.5 -53.5 43.5 -93.5c0 -32.667 -14.333 -62.667 -43 -90s-67.334 -55.333 -116.001 -84h169l-12 -90h-310v77z" />
    <glyph glyph-name="threequarters" unicode="&#xbe;" horiz-adv-x="973" 
d="M57 333l26.9971 82c34.667 -17.333 69.334 -26 104.001 -26c17.333 0 31.333 3.5 42 10.5s16 16.167 16 27.5c0 12 -7.33301 21.333 -22 28s-34 10 -58 10h-37l12 73h29c20 0 36 3.83301 48 11.5s18 17.5 18 29.5c0 9.33301 -4.33301 17.166 -13 23.499s-20 9.5 -34 9.5
c-20 0 -37 -1.83301 -51 -5.5s-31.333 -9.5 -52 -17.5l-28 75c48 24 93.333 36 136 36s77.834 -8.83301 105.501 -26.5s41.5 -42.167 41.5 -73.5c0 -46.667 -20.333 -76 -61 -88v-3c24 -4 42.5 -13.667 55.5 -29s19.5 -35.666 19.5 -60.999
c0 -34.667 -15.667 -62.667 -47 -84s-71.666 -32 -120.999 -32c-42.667 0 -86 10 -130 30zM696.997 742l76 -50l-467 -742l-75 50zM807.997 82h-195l-18 79l136 228l116 -5l-126 -214v-2h87l1 65h98v-65h50l-12 -86h-38v-82h-99v82z" />
    <glyph glyph-name="questiondown" unicode="&#xbf;" horiz-adv-x="376" 
d="M170.5 352c-18.333 18 -27.498 40 -27.498 66s9.16699 48 27.5 66s40.166 27 65.499 27s47.166 -9 65.499 -27s27.5 -40 27.5 -66s-8.83301 -48 -26.5 -66s-39.834 -27 -66.501 -27c-25.333 0 -47.166 9 -65.499 27zM81.002 -180
c-39.333 34.667 -59.002 82.333 -59.002 143c0 28 4.16699 52.167 12.5 72.5s18.166 37.166 29.499 50.499s26.333 28.333 45 45c20.667 18.667 35.834 34.834 45.501 48.501s14.5 30.167 14.5 49.5v22h141v-35c0 -32 -6.16699 -58.167 -18.5 -78.5
s-30.166 -42.5 -53.499 -66.5c-19.333 -18.667 -33.5 -35 -42.5 -49s-13.5 -30.333 -13.5 -49c0 -28 8.83301 -48.167 26.5 -60.5s44.167 -18.5 79.5 -18.5c23.333 0 48.333 3 75 9l10 -123c-37.333 -8 -77.333 -12 -120 -12c-75.333 0 -132.666 17.333 -171.999 52z" />
    <glyph glyph-name="Agrave" unicode="&#xc0;" horiz-adv-x="698" 
d="M462 155h-233l-45 -155h-174l229 690h214l229 -690h-175zM426 280l-46.001 157c-1.33301 4.66699 -5.66602 19 -12.999 43l-17 61h-8c-4.66699 -18.667 -10.167 -38.667 -16.5 -60s-10.833 -36 -13.5 -44l-46 -157h160zM163.999 816l35 114l250 -99l-34 -93l-251 66v12z
" />
    <glyph glyph-name="Aacute" unicode="&#xc1;" horiz-adv-x="698" 
d="M462 155h-233l-45 -155h-174l229 690h214l229 -690h-175zM426 280l-46.001 157c-1.33301 4.66699 -5.66602 19 -12.999 43l-17 61h-8c-4.66699 -18.667 -10.167 -38.667 -16.5 -60s-10.833 -36 -13.5 -44l-46 -157h160zM260.999 738l-34 93l250 99l36 -114l-1 -12z" />
    <glyph glyph-name="Acircumflex" unicode="&#xc2;" horiz-adv-x="698" 
d="M462 155h-233l-45 -155h-174l229 690h214l229 -690h-175zM426 280l-46.001 157c-1.33301 4.66699 -5.66602 19 -12.999 43l-17 61h-8c-4.66699 -18.667 -10.167 -38.667 -16.5 -60s-10.833 -36 -13.5 -44l-46 -157h160zM150.999 784v8l141 114h106l139 -115v-8l-99 -43
l-93 65l-95 -65z" />
    <glyph glyph-name="Atilde" unicode="&#xc3;" horiz-adv-x="698" 
d="M462 155h-233l-45 -155h-174l229 690h214l229 -690h-175zM426 280l-46.001 157c-1.33301 4.66699 -5.66602 19 -12.999 43l-17 61h-8c-4.66699 -18.667 -10.167 -38.667 -16.5 -60s-10.833 -36 -13.5 -44l-46 -157h160zM162.999 774
c10 35.333 25.499 62.834 46.499 82.501s47.5 29.5 79.5 29.5c14 0 26.5 -2 37.5 -6s23.167 -9.66699 36.5 -17c7.33301 -4 14.5 -7.5 21.5 -10.5s13.5 -4.5 19.5 -4.5c9.33301 0 17.666 3.33301 24.999 10s13 15.667 17 27l87 -22c-10 -34.667 -25.333 -61.834 -46 -81.501
s-46.667 -29.5 -78 -29.5c-11.333 0 -21.666 1.66699 -30.999 5s-20 8.33301 -32 15c-20 11.333 -36.667 17 -50 17c-21.333 0 -37.666 -13 -48.999 -39z" />
    <glyph glyph-name="Adieresis" unicode="&#xc4;" horiz-adv-x="698" 
d="M462 155h-233l-45 -155h-174l229 690h214l229 -690h-175zM426 280l-46.001 157c-1.33301 4.66699 -5.66602 19 -12.999 43l-17 61h-8c-4.66699 -18.667 -10.167 -38.667 -16.5 -60s-10.833 -36 -13.5 -44l-46 -157h160zM185.499 772.5
c-14.333 13.667 -21.5 30.167 -21.5 49.5c0 18.667 7.16699 34.667 21.5 48s31.833 20 52.5 20c19.333 0 36.166 -6.66699 50.499 -20s21.5 -29.333 21.5 -48c0 -19.333 -7.16699 -35.833 -21.5 -49.5s-31.166 -20.5 -50.499 -20.5c-20.667 0 -38.167 6.83301 -52.5 20.5z
M394.999 772.5c-14 13.667 -21 30.167 -21 49.5c0 18.667 7 34.667 21 48s31 20 51 20s37.333 -6.66699 52 -20s22 -29.333 22 -48c0 -19.333 -7.33301 -35.833 -22 -49.5s-32 -20.5 -52 -20.5s-37 6.83301 -51 20.5z" />
    <glyph glyph-name="Aring" unicode="&#xc5;" horiz-adv-x="698" 
d="M462 155h-233l-45 -155h-174l229 690h214l229 -690h-175zM426 280l-46.001 157c-1.33301 4.66699 -5.66602 19 -12.999 43l-17 61h-8c-4.66699 -18.667 -10.167 -38.667 -16.5 -60s-10.833 -36 -13.5 -44l-46 -157h160zM260.999 764.5c-22 18.333 -33 42.166 -33 71.499
s11 53 33 71s50.667 27 86 27c36.667 0 66 -9 88 -27s33 -41.667 33 -71s-11 -53.166 -33 -71.499s-51.333 -27.5 -88 -27.5c-35.333 0 -64 9.16699 -86 27.5zM376.999 809c7.33301 6.66699 11 15.667 11 27c0 10.667 -3.66699 19 -11 25s-17.333 9 -30 9
c-12 0 -21.5 -3 -28.5 -9s-10.5 -14.333 -10.5 -25c0 -11.333 3.5 -20.333 10.5 -27s16.5 -10 28.5 -10c12.667 0 22.667 3.33301 30 10z" />
    <glyph glyph-name="AE" unicode="&#xc6;" horiz-adv-x="990" 
d="M952 132l-17 -132h-429v155h-248l-82 -155h-166l367 690h568v-129h-273v-157h224v-121h-224v-151h280zM506 280v281h-33l-149 -281h182z" />
    <glyph glyph-name="Ccedilla" unicode="&#xc7;" horiz-adv-x="603" 
d="M587 29c-57.333 -26 -121.666 -38.999 -192.999 -38.999c-112.667 0 -200.334 29.333 -263.001 88s-94.334 147 -95.001 265v2v2c0.666992 72 16 134.667 46 188s72 94.166 126 122.499s116.333 42.5 187 42.5h1c66.667 0 129.667 -13 189 -39l-45 -126
c-27.333 10 -51.5 17.167 -72.5 21.5s-44.833 6.5 -71.5 6.5c-55.333 0 -100.333 -17.833 -135 -53.5s-52.334 -90.5 -53.001 -164.5c0.666992 -74.667 17.834 -129.667 51.501 -165s78.5 -53 134.5 -53c26 0 49.833 2.5 71.5 7.5s46.834 13.167 75.501 24.5zM253 -259.999
l15 70c13.333 -4 28.333 -6 45 -6c32.667 0 49 13.333 49 40c0 10 -5.83301 19.5 -17.5 28.5s-27.167 15.833 -46.5 20.5l15 72c44.667 -5.33301 78.5 -20 101.5 -44s34.5 -53 34.5 -87c0 -32 -11.333 -57.5 -34 -76.5s-53.667 -28.5 -93 -28.5
c-22.667 0 -45.667 3.66699 -69 11z" />
    <glyph glyph-name="Egrave" unicode="&#xc8;" horiz-adv-x="553" 
d="M515 129l-17 -129h-438v690h443v-129h-274v-157h225v-121h-225v-154h286zM109 816l35 114l250 -99l-34 -93l-251 66v12z" />
    <glyph glyph-name="Eacute" unicode="&#xc9;" horiz-adv-x="553" 
d="M515 129l-17 -129h-438v690h443v-129h-274v-157h225v-121h-225v-154h286zM206 738l-34 93l250 99l36 -114l-1 -12z" />
    <glyph glyph-name="Ecircumflex" unicode="&#xca;" horiz-adv-x="553" 
d="M515 129l-17 -129h-438v690h443v-129h-274v-157h225v-121h-225v-154h286zM96 784v8l141 114h106l139 -115v-8l-99 -43l-93 65l-95 -65z" />
    <glyph glyph-name="Edieresis" unicode="&#xcb;" horiz-adv-x="553" 
d="M515 129l-17 -129h-438v690h443v-129h-274v-157h225v-121h-225v-154h286zM130.5 772.5c-14.333 13.667 -21.5 30.167 -21.5 49.5c0 18.667 7.16699 34.667 21.5 48s31.833 20 52.5 20c19.333 0 36.166 -6.66699 50.499 -20s21.5 -29.333 21.5 -48
c0 -19.333 -7.16699 -35.833 -21.5 -49.5s-31.166 -20.5 -50.499 -20.5c-20.667 0 -38.167 6.83301 -52.5 20.5zM340 772.5c-14 13.667 -21 30.167 -21 49.5c0 18.667 7 34.667 21 48s31 20 51 20s37.333 -6.66699 52 -20s22 -29.333 22 -48
c0 -19.333 -7.33301 -35.833 -22 -49.5s-32 -20.5 -52 -20.5s-37 6.83301 -51 20.5z" />
    <glyph glyph-name="Igrave" unicode="&#xcc;" horiz-adv-x="291" 
d="M230 0h-170v690h170v-690zM-36 816l35 114l250 -99l-34 -93l-251 66v12z" />
    <glyph glyph-name="Iacute" unicode="&#xcd;" horiz-adv-x="291" 
d="M230 0h-170v690h170v-690zM61 738l-34 93l250 99l36 -114l-1 -12z" />
    <glyph glyph-name="Icircumflex" unicode="&#xce;" horiz-adv-x="291" 
d="M230 0h-170v690h170v-690zM-49 784v8l141 114h106l139 -115v-8l-99 -43l-93 65l-95 -65z" />
    <glyph glyph-name="Idieresis" unicode="&#xcf;" horiz-adv-x="291" 
d="M230 0h-170v690h170v-690zM-14.5 772.5c-14.333 13.667 -21.5 30.167 -21.5 49.5c0 18.667 7.16699 34.667 21.5 48s31.833 20 52.5 20c19.333 0 36.166 -6.66699 50.499 -20s21.5 -29.333 21.5 -48c0 -19.333 -7.16699 -35.833 -21.5 -49.5s-31.166 -20.5 -50.499 -20.5
c-20.667 0 -38.167 6.83301 -52.5 20.5zM195 772.5c-14 13.667 -21 30.167 -21 49.5c0 18.667 7 34.667 21 48s31 20 51 20s37.333 -6.66699 52 -20s22 -29.333 22 -48c0 -19.333 -7.33301 -35.833 -22 -49.5s-32 -20.5 -52 -20.5s-37 6.83301 -51 20.5z" />
    <glyph glyph-name="Eth" unicode="&#xd0;" horiz-adv-x="722" 
d="M595 602.5c61.333 -58.333 92 -142.5 92 -252.5c0 -114 -30.5 -200.833 -91.5 -260.5s-148.5 -89.5 -262.5 -89.5h-226v285h-69v120h69v285h225c114 0 201.667 -29.167 263 -87.5zM468.5 185.5c32.333 39 48.5 94.833 48.5 167.5c0 68 -16.167 120.167 -48.5 156.5
s-77.166 54.5 -134.499 54.5h-56v-159h127v-120h-127v-158h56c57.333 0 102.166 19.5 134.499 58.5z" />
    <glyph glyph-name="Ntilde" unicode="&#xd1;" horiz-adv-x="706" 
d="M60 690h152l261 -402h7l-1 54l-2 348h166v-690h-145l-268 405h-5v-405h-165v690zM167 774c10 35.333 25.499 62.834 46.499 82.501s47.5 29.5 79.5 29.5c14 0 26.5 -2 37.5 -6s23.167 -9.66699 36.5 -17c7.33301 -4 14.5 -7.5 21.5 -10.5s13.5 -4.5 19.5 -4.5
c9.33301 0 17.666 3.33301 24.999 10s13 15.667 17 27l87 -22c-10 -34.667 -25.333 -61.834 -46 -81.501s-46.667 -29.5 -78 -29.5c-11.333 0 -21.666 1.66699 -30.999 5s-20 8.33301 -32 15c-20 11.333 -36.667 17 -50 17c-21.333 0 -37.666 -13 -48.999 -39z" />
    <glyph glyph-name="Ograve" unicode="&#xd2;" horiz-adv-x="723" 
d="M541.5 654c49 -30.667 85.667 -72.834 110 -126.501s36.5 -114.834 36.5 -183.501c0 -68 -12.167 -128.667 -36.5 -182s-61 -95.333 -110 -126s-108.833 -46 -179.5 -46s-130.5 15.333 -179.5 46s-85.833 72.667 -110.5 126s-37 114 -37 182
c0 68.667 12.333 129.834 37 183.501s61.5 95.834 110.5 126.501s108.833 46 179.5 46s130.5 -15.333 179.5 -46zM475.5 182c27.667 38.667 41.5 92.667 41.5 162c0 70 -13.833 124.5 -41.5 163.5s-65.5 58.5 -113.5 58.5c-48.667 0 -86.834 -19.5 -114.501 -58.5
s-41.5 -93.5 -41.5 -163.5c0 -69.333 13.833 -123.333 41.5 -162s65.834 -58 114.501 -58c48 0 85.833 19.333 113.5 58zM171 816l35 114l250 -99l-34 -93l-251 66v12z" />
    <glyph glyph-name="Oacute" unicode="&#xd3;" horiz-adv-x="723" 
d="M541.5 654c49 -30.667 85.667 -72.834 110 -126.501s36.5 -114.834 36.5 -183.501c0 -68 -12.167 -128.667 -36.5 -182s-61 -95.333 -110 -126s-108.833 -46 -179.5 -46s-130.5 15.333 -179.5 46s-85.833 72.667 -110.5 126s-37 114 -37 182
c0 68.667 12.333 129.834 37 183.501s61.5 95.834 110.5 126.501s108.833 46 179.5 46s130.5 -15.333 179.5 -46zM475.5 182c27.667 38.667 41.5 92.667 41.5 162c0 70 -13.833 124.5 -41.5 163.5s-65.5 58.5 -113.5 58.5c-48.667 0 -86.834 -19.5 -114.501 -58.5
s-41.5 -93.5 -41.5 -163.5c0 -69.333 13.833 -123.333 41.5 -162s65.834 -58 114.501 -58c48 0 85.833 19.333 113.5 58zM268 738l-34 93l250 99l36 -114l-1 -12z" />
    <glyph glyph-name="Ocircumflex" unicode="&#xd4;" horiz-adv-x="723" 
d="M541.5 654c49 -30.667 85.667 -72.834 110 -126.501s36.5 -114.834 36.5 -183.501c0 -68 -12.167 -128.667 -36.5 -182s-61 -95.333 -110 -126s-108.833 -46 -179.5 -46s-130.5 15.333 -179.5 46s-85.833 72.667 -110.5 126s-37 114 -37 182
c0 68.667 12.333 129.834 37 183.501s61.5 95.834 110.5 126.501s108.833 46 179.5 46s130.5 -15.333 179.5 -46zM475.5 182c27.667 38.667 41.5 92.667 41.5 162c0 70 -13.833 124.5 -41.5 163.5s-65.5 58.5 -113.5 58.5c-48.667 0 -86.834 -19.5 -114.501 -58.5
s-41.5 -93.5 -41.5 -163.5c0 -69.333 13.833 -123.333 41.5 -162s65.834 -58 114.501 -58c48 0 85.833 19.333 113.5 58zM158 784v8l141 114h106l139 -115v-8l-99 -43l-93 65l-95 -65z" />
    <glyph glyph-name="Otilde" unicode="&#xd5;" horiz-adv-x="723" 
d="M541.5 654c49 -30.667 85.667 -72.834 110 -126.501s36.5 -114.834 36.5 -183.501c0 -68 -12.167 -128.667 -36.5 -182s-61 -95.333 -110 -126s-108.833 -46 -179.5 -46s-130.5 15.333 -179.5 46s-85.833 72.667 -110.5 126s-37 114 -37 182
c0 68.667 12.333 129.834 37 183.501s61.5 95.834 110.5 126.501s108.833 46 179.5 46s130.5 -15.333 179.5 -46zM475.5 182c27.667 38.667 41.5 92.667 41.5 162c0 70 -13.833 124.5 -41.5 163.5s-65.5 58.5 -113.5 58.5c-48.667 0 -86.834 -19.5 -114.501 -58.5
s-41.5 -93.5 -41.5 -163.5c0 -69.333 13.833 -123.333 41.5 -162s65.834 -58 114.501 -58c48 0 85.833 19.333 113.5 58zM169 774c10 35.333 25.499 62.834 46.499 82.501s47.5 29.5 79.5 29.5c14 0 26.5 -2 37.5 -6s23.167 -9.66699 36.5 -17
c7.33301 -4 14.5 -7.5 21.5 -10.5s13.5 -4.5 19.5 -4.5c9.33301 0 17.666 3.33301 24.999 10s13 15.667 17 27l87 -22c-10 -34.667 -25.333 -61.834 -46 -81.501s-46.667 -29.5 -78 -29.5c-11.333 0 -21.666 1.66699 -30.999 5s-20 8.33301 -32 15
c-20 11.333 -36.667 17 -50 17c-21.333 0 -37.666 -13 -48.999 -39z" />
    <glyph glyph-name="Odieresis" unicode="&#xd6;" horiz-adv-x="723" 
d="M541.5 654c49 -30.667 85.667 -72.834 110 -126.501s36.5 -114.834 36.5 -183.501c0 -68 -12.167 -128.667 -36.5 -182s-61 -95.333 -110 -126s-108.833 -46 -179.5 -46s-130.5 15.333 -179.5 46s-85.833 72.667 -110.5 126s-37 114 -37 182
c0 68.667 12.333 129.834 37 183.501s61.5 95.834 110.5 126.501s108.833 46 179.5 46s130.5 -15.333 179.5 -46zM475.5 182c27.667 38.667 41.5 92.667 41.5 162c0 70 -13.833 124.5 -41.5 163.5s-65.5 58.5 -113.5 58.5c-48.667 0 -86.834 -19.5 -114.501 -58.5
s-41.5 -93.5 -41.5 -163.5c0 -69.333 13.833 -123.333 41.5 -162s65.834 -58 114.501 -58c48 0 85.833 19.333 113.5 58zM192.5 772.5c-14.333 13.667 -21.5 30.167 -21.5 49.5c0 18.667 7.16699 34.667 21.5 48s31.833 20 52.5 20c19.333 0 36.166 -6.66699 50.499 -20
s21.5 -29.333 21.5 -48c0 -19.333 -7.16699 -35.833 -21.5 -49.5s-31.166 -20.5 -50.499 -20.5c-20.667 0 -38.167 6.83301 -52.5 20.5zM402 772.5c-14 13.667 -21 30.167 -21 49.5c0 18.667 7 34.667 21 48s31 20 51 20s37.333 -6.66699 52 -20s22 -29.333 22 -48
c0 -19.333 -7.33301 -35.833 -22 -49.5s-32 -20.5 -52 -20.5s-37 6.83301 -51 20.5z" />
    <glyph glyph-name="multiply" unicode="&#xd7;" horiz-adv-x="526" 
d="M265 174l-129 -129l-87 87l128 130l-130 131l87 87l131 -130l127 128l88 -88l-127 -128l130 -132l-88 -88z" />
    <glyph glyph-name="Oslash" unicode="&#xd8;" horiz-adv-x="722" 
d="M668 479.5c12.667 -41.667 19.002 -86.8359 19.002 -135.503c0 -68 -12.167 -128.667 -36.5 -182s-61 -95.333 -110 -126s-108.833 -46 -179.5 -46c-54.667 0 -104.667 10 -150 30l-68 -93l-97 68l70 97c-26.667 32 -46.834 69.333 -60.501 112
s-20.5 89.334 -20.5 140.001c0 68.667 12.167 129.834 36.5 183.501s61 95.834 110 126.501s108.833 46 179.5 46c59.333 0 111.666 -11.333 156.999 -34l66 90l101 -69l-72 -98c24 -31.333 42.333 -67.833 55 -109.5zM477.502 179.998c25.667 38 38.5 92.667 38.5 164
c0 72 -13 127.167 -39 165.5s-64.667 57.5 -116 57.5s-90 -19.167 -116 -57.5s-39 -93.5 -39 -165.5c0 -71.333 12.833 -126 38.5 -164s64.5 -57 116.5 -57s90.833 19 116.5 57z" />
    <glyph glyph-name="Ugrave" unicode="&#xd9;" horiz-adv-x="696" 
d="M130 60c-49.333 46.667 -74.001 116 -74.001 208v422h171v-426c0 -46 10.333 -80.833 31 -104.5s50.667 -35.5 90 -35.5s69.333 11.833 90 35.5s31 58.5 31 104.5v426h170v-422c0 -92 -25 -161.333 -75 -208s-122.333 -70 -217 -70
c-95.333 0 -167.666 23.333 -216.999 70zM168.999 816l35 114l250 -99l-34 -93l-251 66v12z" />
    <glyph glyph-name="Uacute" unicode="&#xda;" horiz-adv-x="696" 
d="M130 60c-49.333 46.667 -74.001 116 -74.001 208v422h171v-426c0 -46 10.333 -80.833 31 -104.5s50.667 -35.5 90 -35.5s69.333 11.833 90 35.5s31 58.5 31 104.5v426h170v-422c0 -92 -25 -161.333 -75 -208s-122.333 -70 -217 -70
c-95.333 0 -167.666 23.333 -216.999 70zM266.999 738l-34 93l250 99l36 -114l-1 -12z" />
    <glyph glyph-name="Ucircumflex" unicode="&#xdb;" horiz-adv-x="696" 
d="M130 60c-49.333 46.667 -74.001 116 -74.001 208v422h171v-426c0 -46 10.333 -80.833 31 -104.5s50.667 -35.5 90 -35.5s69.333 11.833 90 35.5s31 58.5 31 104.5v426h170v-422c0 -92 -25 -161.333 -75 -208s-122.333 -70 -217 -70
c-95.333 0 -167.666 23.333 -216.999 70zM155.999 784v8l141 114h106l139 -115v-8l-99 -43l-93 65l-95 -65z" />
    <glyph glyph-name="Udieresis" unicode="&#xdc;" horiz-adv-x="696" 
d="M130 60c-49.333 46.667 -74.001 116 -74.001 208v422h171v-426c0 -46 10.333 -80.833 31 -104.5s50.667 -35.5 90 -35.5s69.333 11.833 90 35.5s31 58.5 31 104.5v426h170v-422c0 -92 -25 -161.333 -75 -208s-122.333 -70 -217 -70
c-95.333 0 -167.666 23.333 -216.999 70zM190.499 772.5c-14.333 13.667 -21.5 30.167 -21.5 49.5c0 18.667 7.16699 34.667 21.5 48s31.833 20 52.5 20c19.333 0 36.166 -6.66699 50.499 -20s21.5 -29.333 21.5 -48c0 -19.333 -7.16699 -35.833 -21.5 -49.5
s-31.166 -20.5 -50.499 -20.5c-20.667 0 -38.167 6.83301 -52.5 20.5zM399.999 772.5c-14 13.667 -21 30.167 -21 49.5c0 18.667 7 34.667 21 48s31 20 51 20s37.333 -6.66699 52 -20s22 -29.333 22 -48c0 -19.333 -7.33301 -35.833 -22 -49.5s-32 -20.5 -52 -20.5
s-37 6.83301 -51 20.5z" />
    <glyph glyph-name="Yacute" unicode="&#xdd;" horiz-adv-x="684" 
d="M259 248l-250 425v17h179l153 -304h5l152 304h179v-17l-250 -425v-248h-168v248zM249 738l-34 93l250 99l36 -114l-1 -12z" />
    <glyph glyph-name="Thorn" unicode="&#xde;" horiz-adv-x="594" 
d="M440.5 550c42.333 -18.667 74.833 -45.5 97.5 -80.5s34 -76.167 34 -123.5s-11.5 -88.5 -34.5 -123.5s-55.5 -61.833 -97.5 -80.5s-91.333 -28 -148 -28h-62v-114h-170v690h170v-112h62c56.667 0 106.167 -9.33301 148.5 -28zM372.5 268c19 19.333 28.501 45 28.501 77
c0 33.333 -9.33301 59.5 -28 78.5s-44.334 28.5 -77.001 28.5h-66v-213h66c32 0 57.5 9.66699 76.5 29z" />
    <glyph glyph-name="germandbls" unicode="&#xdf;" horiz-adv-x="618" 
d="M271 4l11.0039 118c24.667 -6.66699 47.667 -10 69 -10c24.667 0 44.667 5.83301 60 17.5s23 26.5 23 44.5c0 21.333 -7.16699 39.333 -21.5 54s-35.833 32 -64.5 52c-23.333 15.333 -40.833 28.833 -52.5 40.5s-17.5 24.5 -17.5 38.5c0 12.667 3.5 23.334 10.5 32.001
s18.5 19.667 34.5 33c20 16.667 35.333 32.5 46 47.5s16 34.5 16 58.5c0 20.667 -7.33301 37.5 -22 50.5s-33.667 19.5 -57 19.5c-55.333 0 -83 -35.667 -83 -107v-493h-166v486c0 54 11.167 99.167 33.5 135.5s52.166 63.333 89.499 81s78 26.5 122 26.5
c47.333 0 89.166 -7.66699 125.499 -23s64.666 -37 84.999 -65s30.5 -60 30.5 -96c0 -29.333 -6.33301 -53.833 -19 -73.5s-30 -40.167 -52 -61.5c-10.667 -10 -18.667 -18.333 -24 -25s-8 -13 -8 -19c0 -6.66699 3.66699 -13 11 -19s19 -14 35 -24
c33.333 -21.333 60.166 -43.333 80.499 -66s30.5 -52.334 30.5 -89.001c0 -54 -20.333 -97.167 -61 -129.5s-95 -48.5 -163 -48.5c-35.333 0 -69.333 4.66699 -102 14z" />
    <glyph glyph-name="agrave" unicode="&#xe0;" horiz-adv-x="587" 
d="M88 52c-36 41.333 -54.001 99.332 -54.001 173.999c0 52.667 12.5 99.834 37.5 141.501s59.667 74.167 104 97.5s94.5 35 150.5 35c40.667 0 76.334 -3.66699 107.001 -11s62 -18.333 94 -33v-334l4 -122h-138l-17 58h-4c-35.333 -45.333 -80 -68 -134 -68
c-64 0 -114 20.667 -150 62zM328.999 126.999c12 7.33301 22.667 17.333 32 30l-1 216c-14.667 4 -27 6 -37 6c-36 0 -64.833 -13.667 -86.5 -41s-32.5 -63 -32.5 -107c0 -36.667 7 -65 21 -85s34 -30 60 -30c17.333 0 32 3.66699 44 11zM136.999 653.999l48 104l237 -125
l-44 -87l-241 97v11z" />
    <glyph glyph-name="aacute" unicode="&#xe1;" horiz-adv-x="587" 
d="M88 52c-36 41.333 -54.001 99.332 -54.001 173.999c0 52.667 12.5 99.834 37.5 141.501s59.667 74.167 104 97.5s94.5 35 150.5 35c40.667 0 76.334 -3.66699 107.001 -11s62 -18.333 94 -33v-334l4 -122h-138l-17 58h-4c-35.333 -45.333 -80 -68 -134 -68
c-64 0 -114 20.667 -150 62zM328.999 126.999c12 7.33301 22.667 17.333 32 30l-1 216c-14.667 4 -27 6 -37 6c-36 0 -64.833 -13.667 -86.5 -41s-32.5 -63 -32.5 -107c0 -36.667 7 -65 21 -85s34 -30 60 -30c17.333 0 32 3.66699 44 11zM234.999 545.999l-43 86l236 125
l47 -103v-11z" />
    <glyph glyph-name="acircumflex" unicode="&#xe2;" horiz-adv-x="587" 
d="M88 52c-36 41.333 -54.001 99.332 -54.001 173.999c0 52.667 12.5 99.834 37.5 141.501s59.667 74.167 104 97.5s94.5 35 150.5 35c40.667 0 76.334 -3.66699 107.001 -11s62 -18.333 94 -33v-334l4 -122h-138l-17 58h-4c-35.333 -45.333 -80 -68 -134 -68
c-64 0 -114 20.667 -150 62zM328.999 126.999c12 7.33301 22.667 17.333 32 30l-1 216c-14.667 4 -27 6 -37 6c-36 0 -64.833 -13.667 -86.5 -41s-32.5 -63 -32.5 -107c0 -36.667 7 -65 21 -85s34 -30 60 -30c17.333 0 32 3.66699 44 11zM364.999 720.999l134 -123v-8
l-104 -39l-86 75l-86 -74l-104 39v7l134 123h112z" />
    <glyph glyph-name="atilde" unicode="&#xe3;" horiz-adv-x="587" 
d="M88 52c-36 41.333 -54.001 99.332 -54.001 173.999c0 52.667 12.5 99.834 37.5 141.501s59.667 74.167 104 97.5s94.5 35 150.5 35c40.667 0 76.334 -3.66699 107.001 -11s62 -18.333 94 -33v-334l4 -122h-138l-17 58h-4c-35.333 -45.333 -80 -68 -134 -68
c-64 0 -114 20.667 -150 62zM328.999 126.999c12 7.33301 22.667 17.333 32 30l-1 216c-14.667 4 -27 6 -37 6c-36 0 -64.833 -13.667 -86.5 -41s-32.5 -63 -32.5 -107c0 -36.667 7 -65 21 -85s34 -30 60 -30c17.333 0 32 3.66699 44 11zM120.999 601.999
c19.333 74.667 59.334 111.999 120.001 111.999c14 0 26 -1.83301 36 -5.5s23 -9.5 39 -17.5c7.33301 -4 14.333 -7.5 21 -10.5s13 -4.5 19 -4.5c9.33301 0 17.833 3.33301 25.5 10s13.5 15.667 17.5 27l81 -32c-20.667 -74 -60.334 -111 -119.001 -111
c-14 0 -25.833 1.83301 -35.5 5.5s-20.167 8.83398 -31.5 15.501c-11.333 6 -19.833 10.167 -25.5 12.5s-12.5 3.5 -20.5 3.5c-22 0 -38 -13 -48 -39z" />
    <glyph glyph-name="adieresis" unicode="&#xe4;" horiz-adv-x="587" 
d="M88 52c-36 41.333 -54.001 99.332 -54.001 173.999c0 52.667 12.5 99.834 37.5 141.501s59.667 74.167 104 97.5s94.5 35 150.5 35c40.667 0 76.334 -3.66699 107.001 -11s62 -18.333 94 -33v-334l4 -122h-138l-17 58h-4c-35.333 -45.333 -80 -68 -134 -68
c-64 0 -114 20.667 -150 62zM328.999 126.999c12 7.33301 22.667 17.333 32 30l-1 216c-14.667 4 -27 6 -37 6c-36 0 -64.833 -13.667 -86.5 -41s-32.5 -63 -32.5 -107c0 -36.667 7 -65 21 -85s34 -30 60 -30c17.333 0 32 3.66699 44 11zM144.999 583.999
c-14.667 14 -22 32 -22 54c0 22.667 7.33301 41 22 55s33.667 21 57 21c22.667 0 41.334 -7 56.001 -21s22 -32.333 22 -55c0 -22 -7.33301 -40 -22 -54s-33.334 -21 -56.001 -21c-23.333 0 -42.333 7 -57 21zM362.999 583.999c-14.667 14 -22 32 -22 54
c0 22.667 7.33301 41 22 55s33.334 21 56.001 21c23.333 0 42.333 -7 57 -21s22 -32.333 22 -55c0 -22 -7.33301 -40 -22 -54s-33.667 -21 -57 -21c-22.667 0 -41.334 7 -56.001 21z" />
    <glyph glyph-name="aring" unicode="&#xe5;" horiz-adv-x="587" 
d="M88 52c-36 41.333 -54.001 99.332 -54.001 173.999c0 52.667 12.5 99.834 37.5 141.501s59.667 74.167 104 97.5s94.5 35 150.5 35c40.667 0 76.334 -3.66699 107.001 -11s62 -18.333 94 -33v-334l4 -122h-138l-17 58h-4c-35.333 -45.333 -80 -68 -134 -68
c-64 0 -114 20.667 -150 62zM328.999 126.999c12 7.33301 22.667 17.333 32 30l-1 216c-14.667 4 -27 6 -37 6c-36 0 -64.833 -13.667 -86.5 -41s-32.5 -63 -32.5 -107c0 -36.667 7 -65 21 -85s34 -30 60 -30c17.333 0 32 3.66699 44 11zM224.499 570.499
c-21.667 18.333 -32.5 42.166 -32.5 71.499c0 30 10.833 53.833 32.5 71.5s50.167 26.5 85.5 26.5c36 0 65 -8.83301 87 -26.5s33 -41.5 33 -71.5c0 -29.333 -11 -53.166 -33 -71.499s-51 -27.5 -87 -27.5c-35.333 0 -63.833 9.16699 -85.5 27.5zM338.999 615.499
c8 7 12 15.833 12 26.5s-3.83301 19.334 -11.5 26.001s-17.5 10 -29.5 10c-11.333 0 -20.666 -3.33301 -27.999 -10s-11 -15.334 -11 -26.001s3.66699 -19.5 11 -26.5s16.666 -10.5 27.999 -10.5s21 3.5 29 10.5z" />
    <glyph glyph-name="ae" unicode="&#xe6;" horiz-adv-x="857" 
d="M80 52c-35.333 41.333 -53.0039 99.332 -53.0039 173.999c0 52.667 12.5 99.834 37.5 141.501s59.333 74.167 103 97.5s92.834 35 147.501 35c56.667 0 110.334 -10.333 161.001 -31l7 -9c41.333 26.667 92.666 40 153.999 40c37.333 0 71 -6.5 101 -19.5
s53.333 -31 70 -54s25 -48.833 25 -77.5c0 -55.333 -29.5 -96.333 -88.5 -123s-129.5 -40.334 -211.5 -41.001c4.66699 -22 17.334 -39.833 38.001 -53.5s46.334 -20.5 77.001 -20.5c50.667 0 98.667 11.667 144 35l41 -105c-16.667 -10.667 -41.5 -21.834 -74.5 -33.501
s-75.167 -17.5 -126.5 -17.5c-45.333 0 -85.166 7.33301 -119.499 22s-62.5 35.334 -84.5 62.001c-28 -27.333 -59.5 -48.166 -94.5 -62.499s-70.5 -21.5 -106.5 -21.5c-62.667 0 -111.667 20.667 -147 62zM640.496 294.499c27 12.333 40.502 28.833 40.502 49.5
c0 13.333 -5 24 -15 32s-23.333 12 -40 12c-32.667 0 -56.834 -10 -72.501 -30s-23.834 -45.333 -24.501 -76v-7c47.333 0.666992 84.5 7.16699 111.5 19.5zM353.998 160.999c-2 19.333 -3.00195 42.667 -3.00195 70l-1 142c-13.333 4 -26.666 6 -39.999 6
c-35.333 0 -63.666 -13.667 -84.999 -41s-32 -63 -32 -107c0 -37.333 7 -65.833 21 -85.5s34.333 -29.5 61 -29.5c28.667 0 55 15 79 45z" />
    <glyph glyph-name="ccedilla" unicode="&#xe7;" horiz-adv-x="477" 
d="M106 57c-48 44 -72 106.333 -72 187c0 80 24.333 142.5 73 187.5s114 67.833 196 68.5c54 0 102 -8 144 -24l-22 -125c-13.333 6 -29.833 10.833 -49.5 14.5s-37.167 5.5 -52.5 5.5c-40.667 0 -70.834 -11 -90.501 -33s-29.5 -53 -29.5 -93s9.83301 -71 29.5 -93
s49.834 -33 90.501 -33c16 0 34.5 1.83301 55.5 5.5s38.167 8.5 51.5 14.5l22 -125c-39.333 -16 -90 -24 -152 -24c-81.333 0.666992 -146 23 -194 67zM178 -260l15 70c13.333 -4 28.333 -6 45 -6c32.667 0 49 13.333 49 40c0 10 -5.83301 19.5 -17.5 28.5
s-27.167 15.833 -46.5 20.5l15 72c44.667 -5.33301 78.5 -20 101.5 -44s34.5 -53 34.5 -87c0 -32 -11.333 -57.5 -34 -76.5s-53.667 -28.5 -93 -28.5c-22.667 0 -45.667 3.66699 -69 11z" />
    <glyph glyph-name="egrave" unicode="&#xe8;" horiz-adv-x="517" 
d="M492 41c-17.333 -10.667 -42.168 -21.835 -74.501 -33.502s-74.5 -17.5 -126.5 -17.5c-56.667 0 -104.167 10.833 -142.5 32.5s-67 51.334 -86 89.001s-28.5 80.167 -28.5 127.5c0 76.667 22.333 139.334 67 188.001s111.334 73 200.001 73c36 0 68.333 -6.5 97 -19.5
s51.167 -31 67.5 -54s24.5 -49.167 24.5 -78.5c0 -53.333 -28.667 -94.666 -86 -123.999s-127 -45 -209 -47c5.33301 -20.667 18 -36.834 38 -48.501s45 -17.5 75 -17.5c50 0 97.667 11.667 143 35zM210.998 351.499c-15.333 -22.333 -22.668 -47.833 -22.001 -76.5
c48 0.666992 85.333 6.66699 112 18s40 27.333 40 48c0 13.333 -5 24 -15 32s-24 12 -42 12c-33.333 0 -57.666 -11.167 -72.999 -33.5zM118.996 653.999l48 104l237 -125l-44 -87l-241 97v11z" />
    <glyph glyph-name="eacute" unicode="&#xe9;" horiz-adv-x="517" 
d="M492 41c-17.333 -10.667 -42.168 -21.835 -74.501 -33.502s-74.5 -17.5 -126.5 -17.5c-56.667 0 -104.167 10.833 -142.5 32.5s-67 51.334 -86 89.001s-28.5 80.167 -28.5 127.5c0 76.667 22.333 139.334 67 188.001s111.334 73 200.001 73c36 0 68.333 -6.5 97 -19.5
s51.167 -31 67.5 -54s24.5 -49.167 24.5 -78.5c0 -53.333 -28.667 -94.666 -86 -123.999s-127 -45 -209 -47c5.33301 -20.667 18 -36.834 38 -48.501s45 -17.5 75 -17.5c50 0 97.667 11.667 143 35zM210.998 351.499c-15.333 -22.333 -22.668 -47.833 -22.001 -76.5
c48 0.666992 85.333 6.66699 112 18s40 27.333 40 48c0 13.333 -5 24 -15 32s-24 12 -42 12c-33.333 0 -57.666 -11.167 -72.999 -33.5zM194.996 545.999l-43 86l236 125l47 -103v-11z" />
    <glyph glyph-name="ecircumflex" unicode="&#xea;" horiz-adv-x="517" 
d="M492 41c-17.333 -10.667 -42.168 -21.835 -74.501 -33.502s-74.5 -17.5 -126.5 -17.5c-56.667 0 -104.167 10.833 -142.5 32.5s-67 51.334 -86 89.001s-28.5 80.167 -28.5 127.5c0 76.667 22.333 139.334 67 188.001s111.334 73 200.001 73c36 0 68.333 -6.5 97 -19.5
s51.167 -31 67.5 -54s24.5 -49.167 24.5 -78.5c0 -53.333 -28.667 -94.666 -86 -123.999s-127 -45 -209 -47c5.33301 -20.667 18 -36.834 38 -48.501s45 -17.5 75 -17.5c50 0 97.667 11.667 143 35zM210.998 351.499c-15.333 -22.333 -22.668 -47.833 -22.001 -76.5
c48 0.666992 85.333 6.66699 112 18s40 27.333 40 48c0 13.333 -5 24 -15 32s-24 12 -42 12c-33.333 0 -57.666 -11.167 -72.999 -33.5zM323.996 720.999l134 -123v-8l-104 -39l-86 75l-86 -74l-104 39v7l134 123h112z" />
    <glyph glyph-name="edieresis" unicode="&#xeb;" horiz-adv-x="517" 
d="M492 41c-17.333 -10.667 -42.168 -21.835 -74.501 -33.502s-74.5 -17.5 -126.5 -17.5c-56.667 0 -104.167 10.833 -142.5 32.5s-67 51.334 -86 89.001s-28.5 80.167 -28.5 127.5c0 76.667 22.333 139.334 67 188.001s111.334 73 200.001 73c36 0 68.333 -6.5 97 -19.5
s51.167 -31 67.5 -54s24.5 -49.167 24.5 -78.5c0 -53.333 -28.667 -94.666 -86 -123.999s-127 -45 -209 -47c5.33301 -20.667 18 -36.834 38 -48.501s45 -17.5 75 -17.5c50 0 97.667 11.667 143 35zM210.998 351.499c-15.333 -22.333 -22.668 -47.833 -22.001 -76.5
c48 0.666992 85.333 6.66699 112 18s40 27.333 40 48c0 13.333 -5 24 -15 32s-24 12 -42 12c-33.333 0 -57.666 -11.167 -72.999 -33.5zM103.996 583.999c-14.667 14 -22 32 -22 54c0 22.667 7.33301 41 22 55s33.667 21 57 21c22.667 0 41.334 -7 56.001 -21
s22 -32.333 22 -55c0 -22 -7.33301 -40 -22 -54s-33.334 -21 -56.001 -21c-23.333 0 -42.333 7 -57 21zM321.996 583.999c-14.667 14 -22 32 -22 54c0 22.667 7.33301 41 22 55s33.334 21 56.001 21c23.333 0 42.333 -7 57 -21s22 -32.333 22 -55
c0 -22 -7.33301 -40 -22 -54s-33.667 -21 -57 -21c-22.667 0 -41.334 7 -56.001 21z" />
    <glyph glyph-name="igrave" unicode="&#xec;" horiz-adv-x="281" 
d="M54 490h170v-490h-170v490zM-42 654l48 104l237 -125l-44 -87l-241 97v11z" />
    <glyph glyph-name="iacute" unicode="&#xed;" horiz-adv-x="281" 
d="M54 490h170v-490h-170v490zM57 546l-43 86l236 125l47 -103v-11z" />
    <glyph glyph-name="icircumflex" unicode="&#xee;" horiz-adv-x="281" 
d="M54 490h170v-490h-170v490zM186 721l134 -123v-8l-104 -39l-86 75l-86 -74l-104 39v7l134 123h112z" />
    <glyph glyph-name="idieresis" unicode="&#xef;" horiz-adv-x="281" 
d="M54 490h170v-490h-170v490zM-34 584c-14.667 14 -22 32 -22 54c0 22.667 7.33301 41 22 55s33.667 21 57 21c22.667 0 41.334 -7 56.001 -21s22 -32.333 22 -55c0 -22 -7.33301 -40 -22 -54s-33.334 -21 -56.001 -21c-23.333 0 -42.333 7 -57 21zM184 584
c-14.667 14 -22 32 -22 54c0 22.667 7.33301 41 22 55s33.334 21 56.001 21c23.333 0 42.333 -7 57 -21s22 -32.333 22 -55c0 -22 -7.33301 -40 -22 -54s-33.667 -21 -57 -21c-22.667 0 -41.334 7 -56.001 21z" />
    <glyph glyph-name="eth" unicode="&#xf0;" horiz-adv-x="577" 
d="M155.5 18.5c-38.333 19.667 -68.167 48.6689 -89.5 87.002s-32 84.833 -32 139.5c0 53.333 10 99.166 30 137.499s47 67.5 81 87.5s72 30 114 30c21.333 0 41.333 -2.83301 60 -8.5s33.667 -12.834 45 -21.501c-19.333 49.333 -50 87.333 -92 114l-63 -61l-57 55l38 37
c-30 9.33301 -62.667 14 -98 14l15 116c66.667 0 127 -10 181 -30l70 69l59 -55l-51 -50c57.333 -38 101.166 -88.833 131.499 -152.5s45.5 -139.167 45.5 -226.5c0 -95.333 -21.667 -171 -65 -227s-107 -84 -191 -84c-49.333 0 -93.166 9.83301 -131.499 29.5z
M362.999 148.002c17.333 23.333 26 55.333 26 96s-8.66699 72.667 -26 96s-41.333 35 -72 35c-28.667 0 -51.5 -11.833 -68.5 -35.5s-25.5 -55.5 -25.5 -95.5c0 -40.667 8.5 -72.667 25.5 -96s40.167 -35 69.5 -35c30 0 53.667 11.667 71 35z" />
    <glyph glyph-name="ntilde" unicode="&#xf1;" horiz-adv-x="595" 
d="M541 304v-304.001h-170v295c0 24.667 -5.16699 42.667 -15.5 54s-25.833 17 -46.5 17c-32 0 -59.333 -9.33301 -82 -28v-338h-170v490h137l10 -53h4c28 22.667 54.5 38.834 79.5 48.501s52.5 14.5 82.5 14.5c114 0 171 -65.333 171 -196zM121 601.999
c19.333 74.667 59.334 111.999 120.001 111.999c14 0 26 -1.83301 36 -5.5s23 -9.5 39 -17.5c7.33301 -4 14.333 -7.5 21 -10.5s13 -4.5 19 -4.5c9.33301 0 17.833 3.33301 25.5 10s13.5 15.667 17.5 27l81 -32c-20.667 -74 -60.334 -111 -119.001 -111
c-14 0 -25.833 1.83301 -35.5 5.5s-20.167 8.83398 -31.5 15.501c-11.333 6 -19.833 10.167 -25.5 12.5s-12.5 3.5 -20.5 3.5c-22 0 -38 -13 -48 -39z" />
    <glyph glyph-name="ograve" unicode="&#xf2;" horiz-adv-x="583" 
d="M425.5 468.5c38.333 -21 68.333 -50.667 90 -89s32.834 -82.5 33.501 -132.5c0 -50.667 -10.833 -95.5 -32.5 -134.5s-51.834 -69.167 -90.501 -90.5s-83 -32 -133 -32c-50.667 0 -95.5 10.5 -134.5 31.5s-69.333 50.667 -91 89s-32.834 82.5 -33.501 132.5
c0.666992 50.667 11.834 95.5 33.501 134.5s52 69.167 91 90.5s83.833 32 134.5 32c50 0 94.167 -10.5 132.5 -31.5zM227.5 341.5c-16.333 -24.333 -24.5 -56.498 -24.5 -96.498s8.16699 -72.167 24.5 -96.5s38.166 -36.5 65.499 -36.5c26 0.666992 47.167 13.167 63.5 37.5
s24.5 56.166 24.5 95.499s-8.16699 71.166 -24.5 95.499s-37.5 36.833 -63.5 37.5c-27.333 0 -49.166 -12.167 -65.499 -36.5zM118 654.002l48 104l237 -125l-44 -87l-241 97v11z" />
    <glyph glyph-name="oacute" unicode="&#xf3;" horiz-adv-x="583" 
d="M425.5 468.5c38.333 -21 68.333 -50.667 90 -89s32.834 -82.5 33.501 -132.5c0 -50.667 -10.833 -95.5 -32.5 -134.5s-51.834 -69.167 -90.501 -90.5s-83 -32 -133 -32c-50.667 0 -95.5 10.5 -134.5 31.5s-69.333 50.667 -91 89s-32.834 82.5 -33.501 132.5
c0.666992 50.667 11.834 95.5 33.501 134.5s52 69.167 91 90.5s83.833 32 134.5 32c50 0 94.167 -10.5 132.5 -31.5zM227.5 341.5c-16.333 -24.333 -24.5 -56.498 -24.5 -96.498s8.16699 -72.167 24.5 -96.5s38.166 -36.5 65.499 -36.5c26 0.666992 47.167 13.167 63.5 37.5
s24.5 56.166 24.5 95.499s-8.16699 71.166 -24.5 95.499s-37.5 36.833 -63.5 37.5c-27.333 0 -49.166 -12.167 -65.499 -36.5zM217 546.002l-43 86l236 125l47 -103v-11z" />
    <glyph glyph-name="ocircumflex" unicode="&#xf4;" horiz-adv-x="583" 
d="M425.5 468.5c38.333 -21 68.333 -50.667 90 -89s32.834 -82.5 33.501 -132.5c0 -50.667 -10.833 -95.5 -32.5 -134.5s-51.834 -69.167 -90.501 -90.5s-83 -32 -133 -32c-50.667 0 -95.5 10.5 -134.5 31.5s-69.333 50.667 -91 89s-32.834 82.5 -33.501 132.5
c0.666992 50.667 11.834 95.5 33.501 134.5s52 69.167 91 90.5s83.833 32 134.5 32c50 0 94.167 -10.5 132.5 -31.5zM227.5 341.5c-16.333 -24.333 -24.5 -56.498 -24.5 -96.498s8.16699 -72.167 24.5 -96.5s38.166 -36.5 65.499 -36.5c26 0.666992 47.167 13.167 63.5 37.5
s24.5 56.166 24.5 95.499s-8.16699 71.166 -24.5 95.499s-37.5 36.833 -63.5 37.5c-27.333 0 -49.166 -12.167 -65.499 -36.5zM346 721.002l134 -123v-8l-104 -39l-86 75l-86 -74l-104 39v7l134 123h112z" />
    <glyph glyph-name="otilde" unicode="&#xf5;" horiz-adv-x="583" 
d="M425.5 468.5c38.333 -21 68.333 -50.667 90 -89s32.834 -82.5 33.501 -132.5c0 -50.667 -10.833 -95.5 -32.5 -134.5s-51.834 -69.167 -90.501 -90.5s-83 -32 -133 -32c-50.667 0 -95.5 10.5 -134.5 31.5s-69.333 50.667 -91 89s-32.834 82.5 -33.501 132.5
c0.666992 50.667 11.834 95.5 33.501 134.5s52 69.167 91 90.5s83.833 32 134.5 32c50 0 94.167 -10.5 132.5 -31.5zM227.5 341.5c-16.333 -24.333 -24.5 -56.498 -24.5 -96.498s8.16699 -72.167 24.5 -96.5s38.166 -36.5 65.499 -36.5c26 0.666992 47.167 13.167 63.5 37.5
s24.5 56.166 24.5 95.499s-8.16699 71.166 -24.5 95.499s-37.5 36.833 -63.5 37.5c-27.333 0 -49.166 -12.167 -65.499 -36.5zM103 602.002c19.333 74.667 59.334 111.999 120.001 111.999c14 0 26 -1.83301 36 -5.5s23 -9.5 39 -17.5c7.33301 -4 14.333 -7.5 21 -10.5
s13 -4.5 19 -4.5c9.33301 0 17.833 3.33301 25.5 10s13.5 15.667 17.5 27l81 -32c-20.667 -74 -60.334 -111 -119.001 -111c-14 0 -25.833 1.83301 -35.5 5.5s-20.167 8.83398 -31.5 15.501c-11.333 6 -19.833 10.167 -25.5 12.5s-12.5 3.5 -20.5 3.5c-22 0 -38 -13 -48 -39
z" />
    <glyph glyph-name="odieresis" unicode="&#xf6;" horiz-adv-x="583" 
d="M425.5 468.5c38.333 -21 68.333 -50.667 90 -89s32.834 -82.5 33.501 -132.5c0 -50.667 -10.833 -95.5 -32.5 -134.5s-51.834 -69.167 -90.501 -90.5s-83 -32 -133 -32c-50.667 0 -95.5 10.5 -134.5 31.5s-69.333 50.667 -91 89s-32.834 82.5 -33.501 132.5
c0.666992 50.667 11.834 95.5 33.501 134.5s52 69.167 91 90.5s83.833 32 134.5 32c50 0 94.167 -10.5 132.5 -31.5zM227.5 341.5c-16.333 -24.333 -24.5 -56.498 -24.5 -96.498s8.16699 -72.167 24.5 -96.5s38.166 -36.5 65.499 -36.5c26 0.666992 47.167 13.167 63.5 37.5
s24.5 56.166 24.5 95.499s-8.16699 71.166 -24.5 95.499s-37.5 36.833 -63.5 37.5c-27.333 0 -49.166 -12.167 -65.499 -36.5zM127 584.002c-14.667 14 -22 32 -22 54c0 22.667 7.33301 41 22 55s33.667 21 57 21c22.667 0 41.334 -7 56.001 -21s22 -32.333 22 -55
c0 -22 -7.33301 -40 -22 -54s-33.334 -21 -56.001 -21c-23.333 0 -42.333 7 -57 21zM345 584.002c-14.667 14 -22 32 -22 54c0 22.667 7.33301 41 22 55s33.334 21 56.001 21c23.333 0 42.333 -7 57 -21s22 -32.333 22 -55c0 -22 -7.33301 -40 -22 -54s-33.667 -21 -57 -21
c-22.667 0 -41.334 7 -56.001 21z" />
    <glyph glyph-name="divide" unicode="&#xf7;" horiz-adv-x="582" 
d="M236.5 378c-15 14.667 -22.5 33 -22.5 55c0 21.333 7.5 39.666 22.5 54.999s33.5 23 55.5 23c21.333 0 39.5 -7.66699 54.5 -23s22.5 -33.666 22.5 -54.999c0 -22 -7.5 -40.333 -22.5 -55s-33.167 -22 -54.5 -22c-22 0 -40.5 7.33301 -55.5 22zM43 311h496v-109h-496v109
zM236.5 23.5c-15 15 -22.5 33.167 -22.5 54.5c0 22 7.5 40.5 22.5 55.5s33.5 22.5 55.5 22.5c21.333 0 39.5 -7.5 54.5 -22.5s22.5 -33.5 22.5 -55.5c0 -21.333 -7.5 -39.5 -22.5 -54.5s-33.167 -22.5 -54.5 -22.5c-22 0 -40.5 7.5 -55.5 22.5z" />
    <glyph glyph-name="oslash" unicode="&#xf8;" horiz-adv-x="586" 
d="M527.5 355c13.667 -32.667 20.834 -68.665 21.501 -107.998c0 -50.667 -10.833 -95.5 -32.5 -134.5s-51.834 -69.167 -90.501 -90.5s-83 -32 -133 -32c-38 0 -72.667 6 -104 18l-58 -87l-66 43l55 83c-27.333 22.667 -48.333 50.667 -63 84
s-22.334 70.666 -23.001 111.999c0.666992 50.667 11.834 95.5 33.501 134.5s52 69.167 91 90.5s83.833 32 134.5 32c39.333 0 75.333 -6.66699 108 -20l65 95l67 -44l-64 -93c25.333 -22.667 44.833 -50.334 58.5 -83.001zM356.5 149.502
c16.333 24.333 24.5 56.168 24.5 95.501s-8.16699 71.166 -24.5 95.499s-37.5 36.833 -63.5 37.5c-27.333 0 -49.166 -12.167 -65.499 -36.5s-24.5 -56.5 -24.5 -96.5s8.16699 -72.167 24.5 -96.5s38.166 -36.5 65.499 -36.5c26 0.666992 47.167 13.167 63.5 37.5z" />
    <glyph glyph-name="ugrave" unicode="&#xf9;" horiz-adv-x="594" 
d="M540 0h-137.002l-11 54h-4c-27.333 -23.333 -53.666 -39.833 -78.999 -49.5s-52.666 -14.5 -81.999 -14.5c-114 0 -171 65.333 -171 196v304h170v-295c0 -24.667 5.16699 -42.667 15.5 -54s25.833 -17 46.5 -17c30 0 57.333 9.66699 82 29v337h170v-490zM121.998 654
l48 104l237 -125l-44 -87l-241 97v11z" />
    <glyph glyph-name="uacute" unicode="&#xfa;" horiz-adv-x="594" 
d="M540 0h-137.002l-11 54h-4c-27.333 -23.333 -53.666 -39.833 -78.999 -49.5s-52.666 -14.5 -81.999 -14.5c-114 0 -171 65.333 -171 196v304h170v-295c0 -24.667 5.16699 -42.667 15.5 -54s25.833 -17 46.5 -17c30 0 57.333 9.66699 82 29v337h170v-490zM220.998 546
l-43 86l236 125l47 -103v-11z" />
    <glyph glyph-name="ucircumflex" unicode="&#xfb;" horiz-adv-x="594" 
d="M540 0h-137.002l-11 54h-4c-27.333 -23.333 -53.666 -39.833 -78.999 -49.5s-52.666 -14.5 -81.999 -14.5c-114 0 -171 65.333 -171 196v304h170v-295c0 -24.667 5.16699 -42.667 15.5 -54s25.833 -17 46.5 -17c30 0 57.333 9.66699 82 29v337h170v-490zM349.998 721
l134 -123v-8l-104 -39l-86 75l-86 -74l-104 39v7l134 123h112z" />
    <glyph glyph-name="udieresis" unicode="&#xfc;" horiz-adv-x="594" 
d="M540 0h-137.002l-11 54h-4c-27.333 -23.333 -53.666 -39.833 -78.999 -49.5s-52.666 -14.5 -81.999 -14.5c-114 0 -171 65.333 -171 196v304h170v-295c0 -24.667 5.16699 -42.667 15.5 -54s25.833 -17 46.5 -17c30 0 57.333 9.66699 82 29v337h170v-490zM129.998 584
c-14.667 14 -22 32 -22 54c0 22.667 7.33301 41 22 55s33.667 21 57 21c22.667 0 41.334 -7 56.001 -21s22 -32.333 22 -55c0 -22 -7.33301 -40 -22 -54s-33.334 -21 -56.001 -21c-23.333 0 -42.333 7 -57 21zM347.998 584c-14.667 14 -22 32 -22 54
c0 22.667 7.33301 41 22 55s33.334 21 56.001 21c23.333 0 42.333 -7 57 -21s22 -32.333 22 -55c0 -22 -7.33301 -40 -22 -54s-33.667 -21 -57 -21c-22.667 0 -41.334 7 -56.001 21z" />
    <glyph glyph-name="yacute" unicode="&#xfd;" horiz-adv-x="554" 
d="M52 -103c19.333 -5.33301 39.3311 -8.00098 59.998 -8.00098c25.333 0 46.333 6.83301 63 20.5s32.334 37.834 47.001 72.501l7 18h-37l-177 478v12h169l94 -335h2l99 335h168v-12l-183 -481c-28 -76.667 -61.667 -133.667 -101 -171s-85.666 -56 -138.999 -56
c-29.333 0 -61 6 -95 18zM207.998 545.999l-43 86l236 125l47 -103v-11z" />
    <glyph glyph-name="thorn" unicode="&#xfe;" horiz-adv-x="587" 
d="M54 720h168l1 -267c37.333 31.333 79 47 125 47c64 0 114 -22.5 150 -67.5s54 -107.833 54 -188.5s-18 -143.5 -54 -188.5s-86 -67.5 -150 -67.5c-45.333 0 -85.333 14.333 -120 43h-4v-251h-170v940zM361 149c14 22 21 53.667 21 95s-7 73 -21 95s-35 33 -63 33
s-53 -11 -75 -33l-1 -189c22 -22.667 47.333 -34 76 -34c28 0 49 11 63 33z" />
    <glyph glyph-name="ydieresis" unicode="&#xff;" horiz-adv-x="554" 
d="M52 -103c19.333 -5.33301 39.3311 -8.00098 59.998 -8.00098c25.333 0 46.333 6.83301 63 20.5s32.334 37.834 47.001 72.501l7 18h-37l-177 478v12h169l94 -335h2l99 335h168v-12l-183 -481c-28 -76.667 -61.667 -133.667 -101 -171s-85.666 -56 -138.999 -56
c-29.333 0 -61 6 -95 18zM116.998 583.999c-14.667 14 -22 32 -22 54c0 22.667 7.33301 41 22 55s33.667 21 57 21c22.667 0 41.334 -7 56.001 -21s22 -32.333 22 -55c0 -22 -7.33301 -40 -22 -54s-33.334 -21 -56.001 -21c-23.333 0 -42.333 7 -57 21zM334.998 583.999
c-14.667 14 -22 32 -22 54c0 22.667 7.33301 41 22 55s33.334 21 56.001 21c23.333 0 42.333 -7 57 -21s22 -32.333 22 -55c0 -22 -7.33301 -40 -22 -54s-33.667 -21 -57 -21c-22.667 0 -41.334 7 -56.001 21z" />
    <glyph glyph-name="Amacron" unicode="&#x100;" horiz-adv-x="698" 
d="M462 155h-233l-45 -155h-174l229 690h214l229 -690h-175zM426 280l-46.001 157c-1.33301 4.66699 -5.66602 19 -12.999 43l-17 61h-8c-4.66699 -18.667 -10.167 -38.667 -16.5 -60s-10.833 -36 -13.5 -44l-46 -157h160zM494.999 768h-302v92h302v-92z" />
    <glyph glyph-name="amacron" unicode="&#x101;" horiz-adv-x="587" 
d="M88 52c-36 41.333 -54.001 99.332 -54.001 173.999c0 52.667 12.5 99.834 37.5 141.501s59.667 74.167 104 97.5s94.5 35 150.5 35c40.667 0 76.334 -3.66699 107.001 -11s62 -18.333 94 -33v-334l4 -122h-138l-17 58h-4c-35.333 -45.333 -80 -68 -134 -68
c-64 0 -114 20.667 -150 62zM328.999 126.999c12 7.33301 22.667 17.333 32 30l-1 216c-14.667 4 -27 6 -37 6c-36 0 -64.833 -13.667 -86.5 -41s-32.5 -63 -32.5 -107c0 -36.667 7 -65 21 -85s34 -30 60 -30c17.333 0 32 3.66699 44 11zM463.999 578.999h-309v99h309v-99z
" />
    <glyph glyph-name="Abreve" unicode="&#x102;" horiz-adv-x="698" 
d="M462 155h-233l-45 -155h-174l229 690h214l229 -690h-175zM426 280l-46.001 157c-1.33301 4.66699 -5.66602 19 -12.999 43l-17 61h-8c-4.66699 -18.667 -10.167 -38.667 -16.5 -60s-10.833 -36 -13.5 -44l-46 -157h160zM464.999 780.5
c-28 -28.333 -66.6709 -42.501 -116.004 -42.501s-88.166 14.167 -116.499 42.5s-43.166 66.833 -44.499 115.5h100c2.66699 -21.333 9.33398 -37.166 20.001 -47.499s24.334 -15.5 41.001 -15.5c34 0 54 21 60 63h99c-0.666992 -48.667 -15 -87.167 -43 -115.5z" />
    <glyph glyph-name="abreve" unicode="&#x103;" horiz-adv-x="587" 
d="M88 52c-36 41.333 -54.001 99.332 -54.001 173.999c0 52.667 12.5 99.834 37.5 141.501s59.667 74.167 104 97.5s94.5 35 150.5 35c40.667 0 76.334 -3.66699 107.001 -11s62 -18.333 94 -33v-334l4 -122h-138l-17 58h-4c-35.333 -45.333 -80 -68 -134 -68
c-64 0 -114 20.667 -150 62zM328.999 126.999c12 7.33301 22.667 17.333 32 30l-1 216c-14.667 4 -27 6 -37 6c-36 0 -64.833 -13.667 -86.5 -41s-32.5 -63 -32.5 -107c0 -36.667 7 -65 21 -85s34 -30 60 -30c17.333 0 32 3.66699 44 11zM177.999 590.999
c-30.667 30.667 -46.665 71 -47.998 121h108c2.66699 -20.667 9.83398 -37 21.501 -49s27.167 -18 46.5 -18c18.667 0 34 6 46 18s19.333 28.333 22 49h107c-0.666992 -49.333 -16.334 -89.5 -47.001 -120.5s-73.334 -46.5 -128.001 -46.5s-97.334 15.333 -128.001 46z" />
    <glyph glyph-name="Aogonek" unicode="&#x104;" horiz-adv-x="698" 
d="M462 155h-233l-45 -155h-174l229 690h214l229 -690h-175zM426 280l-46.001 157c-1.33301 4.66699 -5.66602 19 -12.999 43l-17 61h-8c-4.66699 -18.667 -10.167 -38.667 -16.5 -60s-10.833 -36 -13.5 -44l-46 -157h160zM556.999 -192c-18 17.333 -27.001 39 -27.001 65
c0 22.667 4.33301 45 13 67s22.334 42 41.001 60h98c-18 -15.333 -32.167 -32 -42.5 -50s-15.5 -34.333 -15.5 -49c0 -13.333 4.5 -23.333 13.5 -30s20.167 -10 33.5 -10l12 1l10 -70c-18 -6.66699 -39.333 -10 -64 -10c-30 0 -54 8.66699 -72 26z" />
    <glyph glyph-name="aogonek" unicode="&#x105;" horiz-adv-x="587" 
d="M542 -208c-18 -6.66699 -39.335 -10.001 -64.002 -10.001c-30 0 -54 8.66699 -72 26s-27 39 -27 65c0 22.667 4.33301 45 13 67s22.334 42 41.001 60h-40l-17 58h-4c-35.333 -45.333 -80 -68 -134 -68c-64 0 -114 20.667 -150 62s-54 99.333 -54 174
c0 52.667 12.5 99.834 37.5 141.501s59.667 74.167 104 97.5s94.5 35 150.5 35c40.667 0 76.334 -3.66699 107.001 -11s62 -18.333 94 -33v-334l4 -122c-18 -15.333 -32.167 -32 -42.5 -50s-15.5 -34.333 -15.5 -49c0 -13.333 4.5 -23.333 13.5 -30s20.167 -10 33.5 -10
l12 1zM328.998 126.999c12 7.33301 22.667 17.333 32 30l-1 216c-14.667 4 -27 6 -37 6c-36 0 -64.833 -13.667 -86.5 -41s-32.5 -63 -32.5 -107c0 -36.667 7 -65 21 -85s34 -30 60 -30c17.333 0 32 3.66699 44 11z" />
    <glyph glyph-name="Cacute" unicode="&#x106;" horiz-adv-x="603" 
d="M587 29c-57.333 -26 -121.666 -38.999 -192.999 -38.999c-112.667 0 -200.334 29.333 -263.001 88s-94.334 147 -95.001 265v2v2c0.666992 72 16 134.667 46 188s72 94.166 126 122.499s116.333 42.5 187 42.5h1c66.667 0 129.667 -13 189 -39l-45 -126
c-27.333 10 -51.5 17.167 -72.5 21.5s-44.833 6.5 -71.5 6.5c-55.333 0 -100.333 -17.833 -135 -53.5s-52.334 -90.5 -53.001 -164.5c0.666992 -74.667 17.834 -129.667 51.501 -165s78.5 -53 134.5 -53c26 0 49.833 2.5 71.5 7.5s46.834 13.167 75.501 24.5zM287 738.001
l-34 93l250 99l36 -114l-1 -12z" />
    <glyph glyph-name="cacute" unicode="&#x107;" horiz-adv-x="477" 
d="M106 57c-48 44 -72 106.333 -72 187c0 80 24.333 142.5 73 187.5s114 67.833 196 68.5c54 0 102 -8 144 -24l-22 -125c-13.333 6 -29.833 10.833 -49.5 14.5s-37.167 5.5 -52.5 5.5c-40.667 0 -70.834 -11 -90.501 -33s-29.5 -53 -29.5 -93s9.83301 -71 29.5 -93
s49.834 -33 90.501 -33c16 0 34.5 1.83301 55.5 5.5s38.167 8.5 51.5 14.5l22 -125c-39.333 -16 -90 -24 -152 -24c-81.333 0.666992 -146 23 -194 67zM207 546l-43 86l236 125l47 -103v-11z" />
    <glyph glyph-name="Cdotaccent" unicode="&#x10a;" horiz-adv-x="603" 
d="M587 29c-57.333 -26 -121.666 -38.999 -192.999 -38.999c-112.667 0 -200.334 29.333 -263.001 88s-94.334 147 -95.001 265v2v2c0.666992 72 16 134.667 46 188s72 94.166 126 122.499s116.333 42.5 187 42.5h1c66.667 0 129.667 -13 189 -39l-45 -126
c-27.333 10 -51.5 17.167 -72.5 21.5s-44.833 6.5 -71.5 6.5c-55.333 0 -100.333 -17.833 -135 -53.5s-52.334 -90.5 -53.001 -164.5c0.666992 -74.667 17.834 -129.667 51.501 -165s78.5 -53 134.5 -53c26 0 49.833 2.5 71.5 7.5s46.834 13.167 75.501 24.5zM318.5 770.501
c-13.667 13 -20.5 29.833 -20.5 50.5c0 20 6.83301 36.5 20.5 49.5s31.167 19.5 52.5 19.5s38.833 -6.5 52.5 -19.5s20.5 -29.5 20.5 -49.5c0 -20.667 -6.83301 -37.5 -20.5 -50.5s-31.167 -19.5 -52.5 -19.5s-38.833 6.5 -52.5 19.5z" />
    <glyph glyph-name="cdotaccent" unicode="&#x10b;" horiz-adv-x="477" 
d="M106 57c-48 44 -72 106.333 -72 187c0 80 24.333 142.5 73 187.5s114 67.833 196 68.5c54 0 102 -8 144 -24l-22 -125c-13.333 6 -29.833 10.833 -49.5 14.5s-37.167 5.5 -52.5 5.5c-40.667 0 -70.834 -11 -90.501 -33s-29.5 -53 -29.5 -93s9.83301 -71 29.5 -93
s49.834 -33 90.501 -33c16 0 34.5 1.83301 55.5 5.5s38.167 8.5 51.5 14.5l22 -125c-39.333 -16 -90 -24 -152 -24c-81.333 0.666992 -146 23 -194 67zM217.5 582c-17.667 16 -26.5 37.333 -26.5 64s8.83301 48.334 26.5 65.001s40.834 25 69.501 25
s51.834 -8.33301 69.501 -25s26.5 -38.334 26.5 -65.001s-8.83301 -48 -26.5 -64s-40.834 -24 -69.501 -24s-51.834 8 -69.501 24z" />
    <glyph glyph-name="Ccaron" unicode="&#x10c;" horiz-adv-x="603" 
d="M587 29c-57.333 -26 -121.666 -38.999 -192.999 -38.999c-112.667 0 -200.334 29.333 -263.001 88s-94.334 147 -95.001 265v2v2c0.666992 72 16 134.667 46 188s72 94.166 126 122.499s116.333 42.5 187 42.5h1c66.667 0 129.667 -13 189 -39l-45 -126
c-27.333 10 -51.5 17.167 -72.5 21.5s-44.833 6.5 -71.5 6.5c-55.333 0 -100.333 -17.833 -135 -53.5s-52.334 -90.5 -53.001 -164.5c0.666992 -74.667 17.834 -129.667 51.501 -165s78.5 -53 134.5 -53c26 0 49.833 2.5 71.5 7.5s46.834 13.167 75.501 24.5zM180 862.001v8
l99 37l95 -88l93 88l99 -36v-8l-139 -123h-106z" />
    <glyph glyph-name="ccaron" unicode="&#x10d;" horiz-adv-x="477" 
d="M106 57c-48 44 -72 106.333 -72 187c0 80 24.333 142.5 73 187.5s114 67.833 196 68.5c54 0 102 -8 144 -24l-22 -125c-13.333 6 -29.833 10.833 -49.5 14.5s-37.167 5.5 -52.5 5.5c-40.667 0 -70.834 -11 -90.501 -33s-29.5 -53 -29.5 -93s9.83301 -71 29.5 -93
s49.834 -33 90.501 -33c16 0 34.5 1.83301 55.5 5.5s38.167 8.5 51.5 14.5l22 -125c-39.333 -16 -90 -24 -152 -24c-81.333 0.666992 -146 23 -194 67zM92 684v7l104 39l86 -74l86 75l104 -39v-8l-134 -123h-112z" />
    <glyph glyph-name="Dcaron" unicode="&#x10e;" horiz-adv-x="675" 
d="M548 602.5c61.333 -58.333 91.999 -142.5 91.999 -252.5c0 -114 -30.667 -200.833 -92 -260.5s-148.666 -89.5 -261.999 -89.5h-226v690h225c114 0 201.667 -29.167 263 -87.5zM229.999 564v-437h57c57.333 0 102.166 19.5 134.499 58.5s48.5 94.833 48.5 167.5
c0 68 -16.167 120.167 -48.5 156.5s-77.166 54.5 -134.499 54.5h-57zM70.999 862v8l99 37l95 -88l93 88l99 -36v-8l-139 -123h-106z" />
    <glyph glyph-name="dcaron" unicode="&#x10f;" horiz-adv-x="591" 
d="M88.5 55.5c-36.333 45 -54.5 107.833 -54.5 188.5s18.167 143.5 54.5 188.5s87.5 67.5 153.5 67.5c44 0 84.667 -14.333 122 -43h4v263h170v-720h-111l-25 62h-3c-49.333 -49.333 -102.333 -74 -159 -74c-64.667 0 -115.167 22.5 -151.5 67.5zM370 141l0.000976562 207
c-24.667 16 -50.334 24 -77.001 24c-59.333 0 -89 -42.667 -89 -128s29.667 -128 89 -128c25.333 0 51 8.33301 77 25zM713.001 711c12.667 -13.333 18.998 -32.001 18.998 -56.001c0.666992 -25.333 -5.16602 -53 -17.499 -83s-26.166 -56 -41.499 -78l-64 11
c2 3.33301 5.83301 10.166 11.5 20.499s10.167 20.5 13.5 30.5s5 19.333 5 28c0 5.33301 -0.333008 9.33301 -1 12c-13.333 4.66699 -24.333 12.834 -33 24.501s-13 25.5 -13 41.5c0 20.667 6.5 37.334 19.5 50.001s29.833 19 50.5 19c21.333 0 38.333 -6.66699 51 -20z" />
    <glyph glyph-name="Dcroat" unicode="&#x110;" horiz-adv-x="722" 
d="M595 602.5c61.333 -58.333 92 -142.5 92 -252.5c0 -114 -30.5 -200.833 -91.5 -260.5s-148.5 -89.5 -262.5 -89.5h-226v285h-69v120h69v285h225c114 0 201.667 -29.167 263 -87.5zM468.5 185.5c32.333 39 48.5 94.833 48.5 167.5c0 68 -16.167 120.167 -48.5 156.5
s-77.166 54.5 -134.499 54.5h-56v-159h127v-120h-127v-158h56c57.333 0 102.166 19.5 134.499 58.5z" />
    <glyph glyph-name="dcroat" unicode="&#x111;" horiz-adv-x="583" 
d="M626 552h-88v-552h-111l-25 62h-3c-49.333 -49.333 -102.333 -74 -159 -74c-64.667 0 -115.167 22.5 -151.5 67.5s-54.5 107.833 -54.5 188.5s18.167 143.5 54.5 188.5s87.5 67.5 153.5 67.5c44 0 84.667 -14.333 122 -43h4v95h-132v103h132v65h170v-65h88v-103zM370 348
c-24.667 16 -50.333 24 -77 24c-59.333 0 -89 -42.667 -89 -128s29.667 -128 89 -128c25.333 0 51 8.33301 77 25v207z" />
    <glyph glyph-name="Emacron" unicode="&#x112;" horiz-adv-x="553" 
d="M515 129l-17 -129h-438v690h443v-129h-274v-157h225v-121h-225v-154h286zM439 768h-302v92h302v-92z" />
    <glyph glyph-name="emacron" unicode="&#x113;" horiz-adv-x="517" 
d="M492 41c-17.333 -10.667 -42.168 -21.835 -74.501 -33.502s-74.5 -17.5 -126.5 -17.5c-56.667 0 -104.167 10.833 -142.5 32.5s-67 51.334 -86 89.001s-28.5 80.167 -28.5 127.5c0 76.667 22.333 139.334 67 188.001s111.334 73 200.001 73c36 0 68.333 -6.5 97 -19.5
s51.167 -31 67.5 -54s24.5 -49.167 24.5 -78.5c0 -53.333 -28.667 -94.666 -86 -123.999s-127 -45 -209 -47c5.33301 -20.667 18 -36.834 38 -48.501s45 -17.5 75 -17.5c50 0 97.667 11.667 143 35zM210.998 351.499c-15.333 -22.333 -22.668 -47.833 -22.001 -76.5
c48 0.666992 85.333 6.66699 112 18s40 27.333 40 48c0 13.333 -5 24 -15 32s-24 12 -42 12c-33.333 0 -57.666 -11.167 -72.999 -33.5zM423.996 578.999h-309v99h309v-99z" />
    <glyph glyph-name="Edotaccent" unicode="&#x116;" horiz-adv-x="553" 
d="M515 129l-17 -129h-438v690h443v-129h-274v-157h225v-121h-225v-154h286zM237.5 770.5c-13.667 13 -20.5 29.833 -20.5 50.5c0 20 6.83301 36.5 20.5 49.5s31.167 19.5 52.5 19.5s38.833 -6.5 52.5 -19.5s20.5 -29.5 20.5 -49.5c0 -20.667 -6.83301 -37.5 -20.5 -50.5
s-31.167 -19.5 -52.5 -19.5s-38.833 6.5 -52.5 19.5z" />
    <glyph glyph-name="edotaccent" unicode="&#x117;" horiz-adv-x="517" 
d="M492 41c-17.333 -10.667 -42.168 -21.835 -74.501 -33.502s-74.5 -17.5 -126.5 -17.5c-56.667 0 -104.167 10.833 -142.5 32.5s-67 51.334 -86 89.001s-28.5 80.167 -28.5 127.5c0 76.667 22.333 139.334 67 188.001s111.334 73 200.001 73c36 0 68.333 -6.5 97 -19.5
s51.167 -31 67.5 -54s24.5 -49.167 24.5 -78.5c0 -53.333 -28.667 -94.666 -86 -123.999s-127 -45 -209 -47c5.33301 -20.667 18 -36.834 38 -48.501s45 -17.5 75 -17.5c50 0 97.667 11.667 143 35zM210.998 351.499c-15.333 -22.333 -22.668 -47.833 -22.001 -76.5
c48 0.666992 85.333 6.66699 112 18s40 27.333 40 48c0 13.333 -5 24 -15 32s-24 12 -42 12c-33.333 0 -57.666 -11.167 -72.999 -33.5zM205.496 581.999c-17.667 16 -26.5 37.333 -26.5 64s8.83301 48.334 26.5 65.001s40.834 25 69.501 25s51.834 -8.33301 69.501 -25
s26.5 -38.334 26.5 -65.001s-8.83301 -48 -26.5 -64s-40.834 -24 -69.501 -24s-51.834 8 -69.501 24z" />
    <glyph glyph-name="Eogonek" unicode="&#x118;" horiz-adv-x="553" 
d="M515 129l-17 -129h-438v690h443v-129h-274v-157h225v-121h-225v-154h286zM373 -192c-18 17.333 -27.001 39 -27.001 65c0 22.667 4.33301 45 13 67s22.334 42 41.001 60h98c-18 -15.333 -32.167 -32 -42.5 -50s-15.5 -34.333 -15.5 -49c0 -13.333 4.5 -23.333 13.5 -30
s20.167 -10 33.5 -10l12 1l10 -70c-18 -6.66699 -39.333 -10 -64 -10c-30 0 -54 8.66699 -72 26z" />
    <glyph glyph-name="eogonek" unicode="&#x119;" horiz-adv-x="517" 
d="M501 -185c-19.333 -7.33301 -40.667 -11.001 -64 -11.001c-30 0 -54 9.5 -72 28.5s-27 42.5 -27 70.5c0 33.333 7 64 21 92c-22 -3.33301 -44.667 -5 -68 -5c-56.667 0 -104.167 10.833 -142.5 32.5s-67 51.334 -86 89.001s-28.5 80.167 -28.5 127.5
c0 76.667 22.333 139.334 67 188.001s111.334 73 200.001 73c36 0 68.333 -6.5 97 -19.5s51.167 -31 67.5 -54s24.5 -49.167 24.5 -78.5c0 -53.333 -28.667 -94.666 -86 -123.999s-127 -45 -209 -47c5.33301 -20.667 18 -36.834 38 -48.501s45 -17.5 75 -17.5
c50 0 97.667 11.667 143 35l41 -105l-6 -3c-16.667 -17.333 -29.834 -35.333 -39.501 -54s-14.5 -35.334 -14.5 -50.001s4.5 -25.667 13.5 -33s20.167 -11 33.5 -11l12 1zM210.999 351.499c-15.333 -22.333 -22.668 -47.833 -22.001 -76.5
c48 0.666992 85.333 6.66699 112 18s40 27.333 40 48c0 13.333 -5 24 -15 32s-24 12 -42 12c-33.333 0 -57.666 -11.167 -72.999 -33.5z" />
    <glyph glyph-name="Ecaron" unicode="&#x11a;" horiz-adv-x="553" 
d="M515 129l-17 -129h-438v690h443v-129h-274v-157h225v-121h-225v-154h286zM98 862v8l99 37l95 -88l93 88l99 -36v-8l-139 -123h-106z" />
    <glyph glyph-name="ecaron" unicode="&#x11b;" horiz-adv-x="517" 
d="M492 41c-17.333 -10.667 -42.168 -21.835 -74.501 -33.502s-74.5 -17.5 -126.5 -17.5c-56.667 0 -104.167 10.833 -142.5 32.5s-67 51.334 -86 89.001s-28.5 80.167 -28.5 127.5c0 76.667 22.333 139.334 67 188.001s111.334 73 200.001 73c36 0 68.333 -6.5 97 -19.5
s51.167 -31 67.5 -54s24.5 -49.167 24.5 -78.5c0 -53.333 -28.667 -94.666 -86 -123.999s-127 -45 -209 -47c5.33301 -20.667 18 -36.834 38 -48.501s45 -17.5 75 -17.5c50 0 97.667 11.667 143 35zM210.998 351.499c-15.333 -22.333 -22.668 -47.833 -22.001 -76.5
c48 0.666992 85.333 6.66699 112 18s40 27.333 40 48c0 13.333 -5 24 -15 32s-24 12 -42 12c-33.333 0 -57.666 -11.167 -72.999 -33.5zM79.9961 683.999v7l104 39l86 -74l86 75l104 -39v-8l-134 -123h-112z" />
    <glyph glyph-name="Gbreve" unicode="&#x11e;" horiz-adv-x="668" 
d="M614 377v-333c-68 -36 -141.333 -54 -220 -54c-114 0 -202.167 29.5 -264.5 88.5s-93.5 148.5 -93.5 268.5c0 56 11.667 110.833 35 164.5s61.666 98.5 114.999 134.5s122.666 54 207.999 54c36.667 0 70.334 -3.33301 101.001 -10s61 -16.667 91 -30l-46 -124
c-28 10.667 -52.333 18 -73 22s-45 6 -73 6c-54.667 0 -99.167 -17.833 -133.5 -53.5s-51.833 -90.834 -52.5 -165.501c0.666992 -75.333 17.834 -130.666 51.501 -165.999s78.5 -53 134.5 -53c28.667 0 53 3.66699 73 11v121h-104l-1 119h252zM508 780.5
c-28 -28.333 -66.6709 -42.501 -116.004 -42.501s-88.166 14.167 -116.499 42.5s-43.166 66.833 -44.499 115.5h100c2.66699 -21.333 9.33398 -37.166 20.001 -47.499s24.334 -15.5 41.001 -15.5c34 0 54 21 60 63h99c-0.666992 -48.667 -15 -87.167 -43 -115.5z" />
    <glyph glyph-name="gbreve" unicode="&#x11f;" horiz-adv-x="578" 
d="M166.5 -219.5c-35.667 7 -69.501 16.832 -101.501 29.499l37 120c52.667 -19.333 103.334 -29 152.001 -29c36 0 63.5 11.5 82.5 34.5s28.833 57.167 29.5 102.5v14h-3c-33.333 -41.333 -77.666 -62 -132.999 -62c-60.667 0 -108.5 20.667 -143.5 62
s-52.5 99.333 -52.5 174c0 52.667 12.5 99.834 37.5 141.501s59.667 74.167 104 97.5s94.833 35 151.5 35c40.667 0 76.167 -3.66699 106.5 -11s61.5 -18.333 93.5 -33v-412c0 -54 -10.333 -101.667 -31 -143s-50.5 -73.5 -89.5 -96.5s-84.833 -34.5 -137.5 -34.5
c-32.667 0 -66.834 3.5 -102.501 10.5zM362.999 156.999l-1 216c-14.667 3.33301 -27 5 -37 5c-36.667 0 -66.167 -13.5 -88.5 -40.5s-33.5 -62.5 -33.5 -106.5c0 -37.333 7 -65.833 21 -85.5s34.333 -29.5 61 -29.5c30 0 56 13.667 78 41zM190.999 590.999
c-30.667 30.667 -46.665 71 -47.998 121h108c2.66699 -20.667 9.83398 -37 21.501 -49s27.167 -18 46.5 -18c18.667 0 34 6 46 18s19.333 28.333 22 49h107c-0.666992 -49.333 -16.334 -89.5 -47.001 -120.5s-73.334 -46.5 -128.001 -46.5s-97.334 15.333 -128.001 46z" />
    <glyph glyph-name="Gdotaccent" unicode="&#x120;" horiz-adv-x="668" 
d="M614 377v-333c-68 -36 -141.333 -54 -220 -54c-114 0 -202.167 29.5 -264.5 88.5s-93.5 148.5 -93.5 268.5c0 56 11.667 110.833 35 164.5s61.666 98.5 114.999 134.5s122.666 54 207.999 54c36.667 0 70.334 -3.33301 101.001 -10s61 -16.667 91 -30l-46 -124
c-28 10.667 -52.333 18 -73 22s-45 6 -73 6c-54.667 0 -99.167 -17.833 -133.5 -53.5s-51.833 -90.834 -52.5 -165.501c0.666992 -75.333 17.834 -130.666 51.501 -165.999s78.5 -53 134.5 -53c28.667 0 53 3.66699 73 11v121h-104l-1 119h252zM335.5 770.5
c-13.667 13 -20.5 29.833 -20.5 50.5c0 20 6.83301 36.5 20.5 49.5s31.167 19.5 52.5 19.5s38.833 -6.5 52.5 -19.5s20.5 -29.5 20.5 -49.5c0 -20.667 -6.83301 -37.5 -20.5 -50.5s-31.167 -19.5 -52.5 -19.5s-38.833 6.5 -52.5 19.5z" />
    <glyph glyph-name="gdotaccent" unicode="&#x121;" horiz-adv-x="578" 
d="M166.5 -219.5c-35.667 7 -69.501 16.832 -101.501 29.499l37 120c52.667 -19.333 103.334 -29 152.001 -29c36 0 63.5 11.5 82.5 34.5s28.833 57.167 29.5 102.5v14h-3c-33.333 -41.333 -77.666 -62 -132.999 -62c-60.667 0 -108.5 20.667 -143.5 62
s-52.5 99.333 -52.5 174c0 52.667 12.5 99.834 37.5 141.501s59.667 74.167 104 97.5s94.833 35 151.5 35c40.667 0 76.167 -3.66699 106.5 -11s61.5 -18.333 93.5 -33v-412c0 -54 -10.333 -101.667 -31 -143s-50.5 -73.5 -89.5 -96.5s-84.833 -34.5 -137.5 -34.5
c-32.667 0 -66.834 3.5 -102.501 10.5zM362.999 156.999l-1 216c-14.667 3.33301 -27 5 -37 5c-36.667 0 -66.167 -13.5 -88.5 -40.5s-33.5 -62.5 -33.5 -106.5c0 -37.333 7 -65.833 21 -85.5s34.333 -29.5 61 -29.5c30 0 56 13.667 78 41zM258.499 581.999
c-17.667 16 -26.5 37.333 -26.5 64s8.83301 48.334 26.5 65.001s40.834 25 69.501 25s51.834 -8.33301 69.501 -25s26.5 -38.334 26.5 -65.001s-8.83301 -48 -26.5 -64s-40.834 -24 -69.501 -24s-51.834 8 -69.501 24z" />
    <glyph glyph-name="Gcommaaccent" unicode="&#x122;" horiz-adv-x="668" 
d="M614 377v-333c-68 -36 -141.333 -54 -220 -54c-114 0 -202.167 29.5 -264.5 88.5s-93.5 148.5 -93.5 268.5c0 56 11.667 110.833 35 164.5s61.666 98.5 114.999 134.5s122.666 54 207.999 54c36.667 0 70.334 -3.33301 101.001 -10s61 -16.667 91 -30l-46 -124
c-28 10.667 -52.333 18 -73 22s-45 6 -73 6c-54.667 0 -99.167 -17.833 -133.5 -53.5s-51.833 -90.834 -52.5 -165.501c0.666992 -75.333 17.834 -130.666 51.501 -165.999s78.5 -53 134.5 -53c28.667 0 53 3.66699 73 11v121h-104l-1 119h252zM438.5 -67
c12.333 -13.333 18.501 -32.002 18.501 -56.002c0.666992 -25.333 -5.33301 -53.166 -18 -83.499s-26.334 -55.833 -41.001 -76.5l-64 11c10.667 18 18.5 32.667 23.5 44s7.5 23.333 7.5 36c0 4.66699 -0.333008 8.33398 -1 11.001c-14 4 -25.333 12 -34 24s-13 26 -13 42
c0 20.667 6.33301 37.167 19 49.5s29.667 18.5 51 18.5c22 0 39.167 -6.66699 51.5 -20z" />
    <glyph glyph-name="gcommaaccent" unicode="&#x123;" horiz-adv-x="578" 
d="M246.5 580.5c-12.333 13.667 -18.5 32.833 -18.5 57.5c0 25.333 6.16699 52.833 18.5 82.5s25.833 54.834 40.5 75.501l64 -11c-10.667 -18 -18.5 -32.667 -23.5 -44s-7.5 -23.333 -7.5 -36c0 -4.66699 0.333008 -8.33398 1 -11.001c14 -4 25.333 -12 34 -24
s13 -26 13 -42c0 -20.667 -6.33301 -37.167 -19 -49.5s-29.667 -18.5 -51 -18.5c-22 0 -39.167 6.83301 -51.5 20.5zM166.5 -219.501c-35.667 7 -69.501 16.832 -101.501 29.499l37 120c52.667 -19.333 103.334 -29 152.001 -29c36 0 63.5 11.5 82.5 34.5
s28.833 57.167 29.5 102.5v14h-3c-33.333 -41.333 -77.666 -62 -132.999 -62c-60.667 0 -108.5 20.667 -143.5 62s-52.5 99.333 -52.5 174c0 52.667 12.5 99.834 37.5 141.501s59.667 74.167 104 97.5s94.833 35 151.5 35c40.667 0 76.167 -3.66699 106.5 -11
s61.5 -18.333 93.5 -33v-412c0 -54 -10.333 -101.667 -31 -143s-50.5 -73.5 -89.5 -96.5s-84.833 -34.5 -137.5 -34.5c-32.667 0 -66.834 3.5 -102.501 10.5zM362.999 156.998l-1 216c-14.667 3.33301 -27 5 -37 5c-36.667 0 -66.167 -13.5 -88.5 -40.5
s-33.5 -62.5 -33.5 -106.5c0 -37.333 7 -65.833 21 -85.5s34.333 -29.5 61 -29.5c30 0 56 13.667 78 41z" />
    <glyph glyph-name="Hbar" unicode="&#x126;" horiz-adv-x="797" 
d="M688 610h70v-104h-70v-506h-170v274h-239v-274h-170v506h-70v104h70v82h170v-82h239v82h170v-82zM279 506v-95h239v95h-239z" />
    <glyph glyph-name="hbar" unicode="&#x127;" horiz-adv-x="613" 
d="M555 304v-303.999h-170v295c0 24.667 -5 42.667 -15 54s-25.333 17 -46 17c-32 0 -59.333 -9.33301 -82 -28v-338h-170v552h-78v103h78v65h170v-65h141v-103h-141v-100h4c22 17.333 44.167 29.666 66.5 36.999s46.5 11 72.5 11c113.333 0 170 -65.333 170 -196z" />
    <glyph glyph-name="Itilde" unicode="&#x128;" horiz-adv-x="291" 
d="M230 0h-170v690h170v-690zM-38 774c10 35.333 25.499 62.834 46.499 82.501s47.5 29.5 79.5 29.5c14 0 26.5 -2 37.5 -6s23.167 -9.66699 36.5 -17c7.33301 -4 14.5 -7.5 21.5 -10.5s13.5 -4.5 19.5 -4.5c9.33301 0 17.666 3.33301 24.999 10s13 15.667 17 27l87 -22
c-10 -34.667 -25.333 -61.834 -46 -81.501s-46.667 -29.5 -78 -29.5c-11.333 0 -21.666 1.66699 -30.999 5s-20 8.33301 -32 15c-20 11.333 -36.667 17 -50 17c-21.333 0 -37.666 -13 -48.999 -39z" />
    <glyph glyph-name="itilde" unicode="&#x129;" horiz-adv-x="281" 
d="M54 490h170v-490h-170v490zM-57 602c19.333 74.667 59.334 111.999 120.001 111.999c14 0 26 -1.83301 36 -5.5s23 -9.5 39 -17.5c7.33301 -4 14.333 -7.5 21 -10.5s13 -4.5 19 -4.5c9.33301 0 17.833 3.33301 25.5 10s13.5 15.667 17.5 27l81 -32
c-20.667 -74 -60.334 -111 -119.001 -111c-14 0 -25.833 1.83301 -35.5 5.5s-20.167 8.83398 -31.5 15.501c-11.333 6 -19.833 10.167 -25.5 12.5s-12.5 3.5 -20.5 3.5c-22 0 -38 -13 -48 -39z" />
    <glyph glyph-name="Imacron" unicode="&#x12a;" horiz-adv-x="291" 
d="M230 0h-170v690h170v-690zM295 768h-302v92h302v-92z" />
    <glyph glyph-name="imacron" unicode="&#x12b;" horiz-adv-x="281" 
d="M54 490h170v-490h-170v490zM285 579h-309v99h309v-99z" />
    <glyph glyph-name="Iogonek" unicode="&#x12e;" horiz-adv-x="291" 
d="M230 0h-170v690h170v-690zM105 -192c-18 17.333 -27.001 39 -27.001 65c0 22.667 4.33301 45 13 67s22.334 42 41.001 60h98c-18 -15.333 -32.167 -32 -42.5 -50s-15.5 -34.333 -15.5 -49c0 -13.333 4.5 -23.333 13.5 -30s20.167 -10 33.5 -10l12 1l10 -70
c-18 -6.66699 -39.333 -10 -64 -10c-30 0 -54 8.66699 -72 26z" />
    <glyph glyph-name="iogonek" unicode="&#x12f;" horiz-adv-x="292" 
d="M75.5 595.5c-17.667 16.333 -26.5 37.833 -26.5 64.5s8.83301 48.334 26.5 65.001s40.834 25 69.501 25s51.834 -8.33301 69.501 -25s26.5 -38.334 26.5 -65.001s-8.83301 -48.167 -26.5 -64.5s-40.834 -24.5 -69.501 -24.5s-51.834 8.16699 -69.501 24.5zM60 490h170
v-490h-170v490zM105 -192c-18 17.333 -27.001 39 -27.001 65c0 22.667 4.33301 45 13 67s22.334 42 41.001 60h98c-18 -15.333 -32.167 -32 -42.5 -50s-15.5 -34.333 -15.5 -49c0 -13.333 4.5 -23.333 13.5 -30s20.167 -10 33.5 -10l12 1l10 -70
c-18 -6.66699 -39.333 -10 -64 -10c-30 0 -54 8.66699 -72 26z" />
    <glyph glyph-name="Idotaccent" unicode="&#x130;" horiz-adv-x="291" 
d="M230 0h-170v690h170v-690zM92.5 770.5c-13.667 13 -20.5 29.833 -20.5 50.5c0 20 6.83301 36.5 20.5 49.5s31.167 19.5 52.5 19.5s38.833 -6.5 52.5 -19.5s20.5 -29.5 20.5 -49.5c0 -20.667 -6.83301 -37.5 -20.5 -50.5s-31.167 -19.5 -52.5 -19.5
s-38.833 6.5 -52.5 19.5z" />
    <glyph glyph-name="dotlessi" unicode="&#x131;" horiz-adv-x="281" 
d="M54 490h170v-490h-170v490z" />
    <glyph glyph-name="IJ" unicode="&#x132;" horiz-adv-x="736" 
d="M230 0h-170v690h170v-690zM369 1.5c-30 7.66699 -48.3311 13.499 -54.998 17.499l29 120c3.33301 -2 15.666 -4.83301 36.999 -8.5s40.666 -5.5 57.999 -5.5c22 0 39.167 5.66699 51.5 17s18.5 26 18.5 44v374h-142v130h312v-514c0 -57.333 -19 -102.666 -57 -135.999
s-90.333 -50 -157 -50c-33.333 0 -65 3.83301 -95 11.5z" />
    <glyph glyph-name="ij" unicode="&#x133;" horiz-adv-x="598" 
d="M75.5 595.5c-17.667 16.333 -26.5 37.833 -26.5 64.5s8.83301 48.334 26.5 65.001s40.834 25 69.501 25s51.834 -8.33301 69.501 -25s26.5 -38.334 26.5 -65.001s-8.83301 -48.167 -26.5 -64.5s-40.834 -24.5 -69.501 -24.5s-51.834 8.16699 -69.501 24.5zM60 490h170
v-490h-170v490zM385.5 594.5c-17.667 16.333 -26.5 37.833 -26.5 64.5s8.83301 48.334 26.5 65.001s40.5 25 68.5 25s50.833 -8.33301 68.5 -25s26.5 -38.334 26.5 -65.001s-8.83301 -48.167 -26.5 -64.5s-40.5 -24.5 -68.5 -24.5s-50.833 8.16699 -68.5 24.5zM260 -102
c31.333 2.66699 54.666 9.33301 69.999 20s25.833 27.167 31.5 49.5s8.5 54.5 8.5 96.5v426h170v-441c0 -68.667 -9.33301 -123.5 -28 -164.5s-47.167 -70.5 -85.5 -88.5s-88.166 -26.667 -149.499 -26z" />
    <glyph glyph-name="Kcommaaccent" unicode="&#x136;" horiz-adv-x="639" 
d="M644 12v-13h-181l-187 279h-46v-278h-169v690h169v-288h40l188 287h171v-16l-208 -318v-10zM377.5 -67c12.333 -13.333 18.501 -32.002 18.501 -56.002c0.666992 -25.333 -5.33301 -53.166 -18 -83.499s-26.334 -55.833 -41.001 -76.5l-64 11
c10.667 18 18.5 32.667 23.5 44s7.5 23.333 7.5 36c0 4.66699 -0.333008 8.33398 -1 11.001c-14 4 -25.333 12 -34 24s-13 26 -13 42c0 20.667 6.33301 37.167 19 49.5s29.667 18.5 51 18.5c22 0 39.167 -6.66699 51.5 -20z" />
    <glyph glyph-name="kcommaaccent" unicode="&#x137;" horiz-adv-x="590" 
d="M580 12v-12h-177l-137 193h-40v-193h-168v720h168v-412h40l128 182h171v-12l-161 -226v-7zM360.5 -67c12.333 -13.333 18.501 -32.002 18.501 -56.002c0.666992 -25.333 -5.33301 -53.166 -18 -83.499s-26.334 -55.833 -41.001 -76.5l-64 11
c10.667 18 18.5 32.667 23.5 44s7.5 23.333 7.5 36c0 4.66699 -0.333008 8.33398 -1 11.001c-14 4 -25.333 12 -34 24s-13 26 -13 42c0 20.667 6.33301 37.167 19 49.5s29.667 18.5 51 18.5c22 0 39.167 -6.66699 51.5 -20z" />
    <glyph glyph-name="kgreenlandic" unicode="&#x138;" horiz-adv-x="565" 
d="M568 12v-12h-175l-147 189h-18v-189h-170v490h170v-189h16l138 189h169v-12l-171 -221v-5z" />
    <glyph glyph-name="Lacute" unicode="&#x139;" horiz-adv-x="530" 
d="M230 131h283l-18 -131h-435v690h170v-559zM51 738l-34 93l250 99l36 -114l-1 -12z" />
    <glyph glyph-name="lacute" unicode="&#x13a;" horiz-adv-x="360" 
d="M100 37.5c-28.667 31 -43 77.167 -43 138.5l1 544h169v-505c0 -25.333 2 -44.5 6 -57.5s11 -22 21 -27s24.667 -7.5 44 -7.5c10.667 0 20.667 0.666992 30 2l18 -109c-20 -8 -39.5 -14.167 -58.5 -18.5s-41.5 -6.5 -67.5 -6.5c-51.333 0 -91.333 15.5 -120 46.5zM68 776
l-43 86l236 125l47 -103v-11z" />
    <glyph glyph-name="Lcommaaccent" unicode="&#x13b;" horiz-adv-x="530" 
d="M230 131h283l-18 -131h-435v690h170v-559zM327.5 -67c12.333 -13.333 18.501 -32.002 18.501 -56.002c0.666992 -25.333 -5.33301 -53.166 -18 -83.499s-26.334 -55.833 -41.001 -76.5l-64 11c10.667 18 18.5 32.667 23.5 44s7.5 23.333 7.5 36
c0 4.66699 -0.333008 8.33398 -1 11.001c-14 4 -25.333 12 -34 24s-13 26 -13 42c0 20.667 6.33301 37.167 19 49.5s29.667 18.5 51 18.5c22 0 39.167 -6.66699 51.5 -20z" />
    <glyph glyph-name="lcommaaccent" unicode="&#x13c;" horiz-adv-x="360" 
d="M100 37.5c-28.667 31 -43 77.167 -43 138.5l1 544h169v-505c0 -25.333 2 -44.5 6 -57.5s11 -22 21 -27s24.667 -7.5 44 -7.5c10.667 0 20.667 0.666992 30 2l18 -109c-20 -8 -39.5 -14.167 -58.5 -18.5s-41.5 -6.5 -67.5 -6.5c-51.333 0 -91.333 15.5 -120 46.5z
M271.5 -67c12.333 -13.333 18.501 -32.002 18.501 -56.002c0.666992 -25.333 -5.33301 -53.166 -18 -83.499s-26.334 -55.833 -41.001 -76.5l-64 11c10.667 18 18.5 32.667 23.5 44s7.5 23.333 7.5 36c0 4.66699 -0.333008 8.33398 -1 11.001c-14 4 -25.333 12 -34 24
s-13 26 -13 42c0 20.667 6.33301 37.167 19 49.5s29.667 18.5 51 18.5c22 0 39.167 -6.66699 51.5 -20z" />
    <glyph glyph-name="Lcaron" unicode="&#x13d;" horiz-adv-x="530" 
d="M230 131h283l-18 -131h-435v690h170v-559zM451.5 673c12.333 -13.333 18.501 -32.002 18.501 -56.002c0.666992 -25.333 -5.33301 -53.166 -18 -83.499s-26.334 -55.833 -41.001 -76.5l-64 11c10.667 18 18.5 32.667 23.5 44s7.5 23.333 7.5 36
c0 4.66699 -0.333008 8.33398 -1 11.001c-14 4 -25.333 12 -34 24s-13 26 -13 42c0 20.667 6.33301 37.167 19 49.5s29.667 18.5 51 18.5c22 0 39.167 -6.66699 51.5 -20z" />
    <glyph glyph-name="lcaron" unicode="&#x13e;" horiz-adv-x="360" 
d="M100 37.5c-28.667 31 -43 77.167 -43 138.5l1 544h169v-505c0 -25.333 2 -44.5 6 -57.5s11 -22 21 -27s24.667 -7.5 44 -7.5c10.667 0 20.667 0.666992 30 2l18 -109c-20 -8 -39.5 -14.167 -58.5 -18.5s-41.5 -6.5 -67.5 -6.5c-51.333 0 -91.333 15.5 -120 46.5zM404 711
c12.667 -13.333 18.998 -32.001 18.998 -56.001c0.666992 -25.333 -5.16602 -53 -17.499 -83s-26.166 -56 -41.499 -78l-64 11c2 3.33301 5.83301 10.166 11.5 20.499s10.167 20.5 13.5 30.5s5 19.333 5 28c0 5.33301 -0.333008 9.33301 -1 12
c-13.333 4.66699 -24.333 12.834 -33 24.501s-13 25.5 -13 41.5c0 20.667 6.5 37.334 19.5 50.001s29.833 19 50.5 19c21.333 0 38.333 -6.66699 51 -20z" />
    <glyph glyph-name="Ldot" unicode="&#x13f;" horiz-adv-x="530" 
d="M60 690h170v-558h281l-2 -132h-449v690zM339 252.5c-16.667 17 -25 39.167 -25 66.5s8.33301 49.5 25 66.5s38.667 25.5 66 25.5s49.5 -8.5 66.5 -25.5s25.5 -39.167 25.5 -66.5s-8.5 -49.5 -25.5 -66.5s-39.167 -25.5 -66.5 -25.5s-49.333 8.5 -66 25.5z" />
    <glyph glyph-name="ldot" unicode="&#x140;" horiz-adv-x="502" 
d="M102.5 38c-30.333 31.333 -45.502 77.333 -45.502 138l1 544h169v-505c0 -25.333 2.33301 -44.5 7 -57.5s12.334 -22 23.001 -27s26 -7.5 46 -7.5c14 0 25 0.666992 33 2l17 -108c-18.667 -8.66699 -37.667 -15.167 -57 -19.5s-43 -6.5 -71 -6.5
c-51.333 0 -92.166 15.667 -122.499 47zM290.498 252c-17 16.667 -25.5 38.667 -25.5 66c0 28 8.5 50.333 25.5 67s39.167 25 66.5 25s49.5 -8.33301 66.5 -25s25.5 -39 25.5 -67c0 -26.667 -8.5 -48.5 -25.5 -65.5s-39.167 -25.5 -66.5 -25.5s-49.5 8.33301 -66.5 25z" />
    <glyph glyph-name="Lslash" unicode="&#x141;" horiz-adv-x="583" 
d="M286 464l90 64l66 -89l-156 -110v-196h280v-133h-451v212l-40 -30l-66 89l106 76v343h171v-226z" />
    <glyph glyph-name="lslash" unicode="&#x142;" horiz-adv-x="415" 
d="M404 17c-19.333 -8.66699 -38.6689 -15.167 -58.002 -19.5s-42.666 -6.5 -69.999 -6.5c-52 0 -93.167 15.5 -123.5 46.5s-45.5 77.167 -45.5 138.5v55l-62 -38l-51 87l114 70l1 370h169l-1 -266l67 41l51 -87l-118 -72v-121c0 -25.333 2.33301 -44.5 7 -57.5
s12.334 -22 23.001 -27s26 -7.5 46 -7.5c14 0 25 0.666992 33 2z" />
    <glyph glyph-name="Nacute" unicode="&#x143;" horiz-adv-x="706" 
d="M60 690h152l261 -402h7l-1 54l-2 348h166v-690h-145l-268 405h-5v-405h-165v690zM266 738l-34 93l250 99l36 -114l-1 -12z" />
    <glyph glyph-name="nacute" unicode="&#x144;" horiz-adv-x="595" 
d="M541 304v-304.001h-170v295c0 24.667 -5.16699 42.667 -15.5 54s-25.833 17 -46.5 17c-32 0 -59.333 -9.33301 -82 -28v-338h-170v490h137l10 -53h4c28 22.667 54.5 38.834 79.5 48.501s52.5 14.5 82.5 14.5c114 0 171 -65.333 171 -196zM235 545.999l-43 86l236 125
l47 -103v-11z" />
    <glyph glyph-name="Ncommaaccent" unicode="&#x145;" horiz-adv-x="706" 
d="M60 690h152l261 -402h7l-1 54l-2 348h166v-690h-145l-268 405h-5v-405h-165v690zM413.5 -67c12.333 -13.333 18.501 -32.002 18.501 -56.002c0.666992 -25.333 -5.33301 -53.166 -18 -83.499s-26.334 -55.833 -41.001 -76.5l-64 11c10.667 18 18.5 32.667 23.5 44
s7.5 23.333 7.5 36c0 4.66699 -0.333008 8.33398 -1 11.001c-14 4 -25.333 12 -34 24s-13 26 -13 42c0 20.667 6.33301 37.167 19 49.5s29.667 18.5 51 18.5c22 0 39.167 -6.66699 51.5 -20z" />
    <glyph glyph-name="ncommaaccent" unicode="&#x146;" horiz-adv-x="595" 
d="M541 304v-304.001h-170v295c0 24.667 -5.16699 42.667 -15.5 54s-25.833 17 -46.5 17c-32 0 -59.333 -9.33301 -82 -28v-338h-170v490h137l10 -53h4c28 22.667 54.5 38.834 79.5 48.501s52.5 14.5 82.5 14.5c114 0 171 -65.333 171 -196zM356.5 -67.001
c12.333 -13.333 18.501 -32.002 18.501 -56.002c0.666992 -25.333 -5.33301 -53.166 -18 -83.499s-26.334 -55.833 -41.001 -76.5l-64 11c10.667 18 18.5 32.667 23.5 44s7.5 23.333 7.5 36c0 4.66699 -0.333008 8.33398 -1 11.001c-14 4 -25.333 12 -34 24s-13 26 -13 42
c0 20.667 6.33301 37.167 19 49.5s29.667 18.5 51 18.5c22 0 39.167 -6.66699 51.5 -20z" />
    <glyph glyph-name="Ncaron" unicode="&#x147;" horiz-adv-x="706" 
d="M60 690h152l261 -402h7l-1 54l-2 348h166v-690h-145l-268 405h-5v-405h-165v690zM158 862v8l99 37l95 -88l93 88l99 -36v-8l-139 -123h-106z" />
    <glyph glyph-name="ncaron" unicode="&#x148;" horiz-adv-x="595" 
d="M541 304v-304.001h-170v295c0 24.667 -5.16699 42.667 -15.5 54s-25.833 17 -46.5 17c-32 0 -59.333 -9.33301 -82 -28v-338h-170v490h137l10 -53h4c28 22.667 54.5 38.834 79.5 48.501s52.5 14.5 82.5 14.5c114 0 171 -65.333 171 -196zM120 683.999v7l104 39l86 -74
l86 75l104 -39v-8l-134 -123h-112z" />
    <glyph glyph-name="Eng" unicode="&#x14a;" horiz-adv-x="718" 
d="M357 -201c-27.333 6.66699 -47.333 12.668 -60 18.001l29 121c4.66699 -2 17.5 -4.83301 38.5 -8.5s39.833 -5.5 56.5 -5.5c22.667 0 40.667 6.16699 54 18.5s20 29.166 20 50.499v25l-260 405h-6l1 -51v-372h-170v690h164l263 -395h6l-1 54l-2 341h171v-708
c0 -57.333 -19 -103.833 -57 -139.5s-90.333 -53.5 -157 -53.5c-32.667 0 -62.667 3.33301 -90 10z" />
    <glyph glyph-name="eng" unicode="&#x14b;" horiz-adv-x="587" 
d="M538 304l-0.999023 -283c0 -88 -21.833 -152 -65.5 -192s-108.834 -59.667 -195.501 -59l-17 127c41.333 3.33301 70 15.666 86 36.999s24 56.333 24 105v256c0 24.667 -5 42.667 -15 54s-26 17 -48 17c-32 0 -59.333 -9.33301 -82 -28v-338h-170v490h137l10 -53h4
c28 22.667 54.5 38.834 79.5 48.501s52.5 14.5 82.5 14.5c114 0 171 -65.333 171 -196z" />
    <glyph glyph-name="Omacron" unicode="&#x14c;" horiz-adv-x="723" 
d="M541.5 654c49 -30.667 85.667 -72.834 110 -126.501s36.5 -114.834 36.5 -183.501c0 -68 -12.167 -128.667 -36.5 -182s-61 -95.333 -110 -126s-108.833 -46 -179.5 -46s-130.5 15.333 -179.5 46s-85.833 72.667 -110.5 126s-37 114 -37 182
c0 68.667 12.333 129.834 37 183.501s61.5 95.834 110.5 126.501s108.833 46 179.5 46s130.5 -15.333 179.5 -46zM475.5 182c27.667 38.667 41.5 92.667 41.5 162c0 70 -13.833 124.5 -41.5 163.5s-65.5 58.5 -113.5 58.5c-48.667 0 -86.834 -19.5 -114.501 -58.5
s-41.5 -93.5 -41.5 -163.5c0 -69.333 13.833 -123.333 41.5 -162s65.834 -58 114.501 -58c48 0 85.833 19.333 113.5 58zM502 768h-302v92h302v-92z" />
    <glyph glyph-name="omacron" unicode="&#x14d;" horiz-adv-x="583" 
d="M425.5 468.5c38.333 -21 68.333 -50.667 90 -89s32.834 -82.5 33.501 -132.5c0 -50.667 -10.833 -95.5 -32.5 -134.5s-51.834 -69.167 -90.501 -90.5s-83 -32 -133 -32c-50.667 0 -95.5 10.5 -134.5 31.5s-69.333 50.667 -91 89s-32.834 82.5 -33.501 132.5
c0.666992 50.667 11.834 95.5 33.501 134.5s52 69.167 91 90.5s83.833 32 134.5 32c50 0 94.167 -10.5 132.5 -31.5zM227.5 341.5c-16.333 -24.333 -24.5 -56.498 -24.5 -96.498s8.16699 -72.167 24.5 -96.5s38.166 -36.5 65.499 -36.5c26 0.666992 47.167 13.167 63.5 37.5
s24.5 56.166 24.5 95.499s-8.16699 71.166 -24.5 95.499s-37.5 36.833 -63.5 37.5c-27.333 0 -49.166 -12.167 -65.499 -36.5zM446 579.002h-309v99h309v-99z" />
    <glyph glyph-name="Ohungarumlaut" unicode="&#x150;" horiz-adv-x="723" 
d="M541.5 654c49 -30.667 85.667 -72.834 110 -126.501s36.5 -114.834 36.5 -183.501c0 -68 -12.167 -128.667 -36.5 -182s-61 -95.333 -110 -126s-108.833 -46 -179.5 -46s-130.5 15.333 -179.5 46s-85.833 72.667 -110.5 126s-37 114 -37 182
c0 68.667 12.333 129.834 37 183.501s61.5 95.834 110.5 126.501s108.833 46 179.5 46s130.5 -15.333 179.5 -46zM475.5 182c27.667 38.667 41.5 92.667 41.5 162c0 70 -13.833 124.5 -41.5 163.5s-65.5 58.5 -113.5 58.5c-48.667 0 -86.834 -19.5 -114.501 -58.5
s-41.5 -93.5 -41.5 -163.5c0 -69.333 13.833 -123.333 41.5 -162s65.834 -58 114.501 -58c48 0 85.833 19.333 113.5 58zM262 733l-69 71l174 176l78 -88v-10zM487 731l-61 77l191 154l70 -93v-11z" />
    <glyph glyph-name="ohungarumlaut" unicode="&#x151;" horiz-adv-x="583" 
d="M425.5 468.5c38.333 -21 68.333 -50.667 90 -89s32.834 -82.5 33.501 -132.5c0 -50.667 -10.833 -95.5 -32.5 -134.5s-51.834 -69.167 -90.501 -90.5s-83 -32 -133 -32c-50.667 0 -95.5 10.5 -134.5 31.5s-69.333 50.667 -91 89s-32.834 82.5 -33.501 132.5
c0.666992 50.667 11.834 95.5 33.501 134.5s52 69.167 91 90.5s83.833 32 134.5 32c50 0 94.167 -10.5 132.5 -31.5zM227.5 341.5c-16.333 -24.333 -24.5 -56.498 -24.5 -96.498s8.16699 -72.167 24.5 -96.5s38.166 -36.5 65.499 -36.5c26 0.666992 47.167 13.167 63.5 37.5
s24.5 56.166 24.5 95.499s-8.16699 71.166 -24.5 95.499s-37.5 36.833 -63.5 37.5c-27.333 0 -49.166 -12.167 -65.499 -36.5zM179 534.002l-72 68l162 180l83 -81v-10zM395 533.002l-65 73l178 163l75 -87l1 -11z" />
    <glyph glyph-name="OE" unicode="&#x152;" horiz-adv-x="1033" 
d="M978 0l-524.999 -0.00195312c-26.667 -6.66699 -57 -10 -91 -10c-70.667 0 -130.5 15.333 -179.5 46s-85.833 72.667 -110.5 126s-37 114 -37 182c0 68.667 12.333 129.834 37 183.501s61.5 95.834 110.5 126.501s108.833 46 179.5 46c34 0 64 -3.33301 90 -10h531v-129
h-350c27.333 -44 44.666 -96.333 51.999 -157h249v-122h-250c-6 -56 -22.333 -106 -49 -150h360zM247.501 181.998c27.667 -38.667 65.834 -58 114.501 -58c48 0 85.833 19.333 113.5 58s41.5 92.667 41.5 162c0 70 -13.833 124.5 -41.5 163.5s-65.5 58.5 -113.5 58.5
c-48.667 0 -86.834 -19.5 -114.501 -58.5s-41.5 -93.5 -41.5 -163.5c0 -69.333 13.833 -123.333 41.5 -162z" />
    <glyph glyph-name="oe" unicode="&#x153;" horiz-adv-x="874" 
d="M774.5 7.5c-32.333 -11.667 -74.501 -17.5 -126.501 -17.5c-75.333 0 -135.666 20 -180.999 60c-22 -19.333 -47.833 -34.166 -77.5 -44.499s-61.834 -15.5 -96.501 -15.5c-50.667 0 -95.5 10.5 -134.5 31.5s-69.333 50.667 -91 89s-32.834 82.5 -33.501 132.5
c0.666992 50.667 11.834 95.5 33.501 134.5s52 69.167 91 90.5s83.833 32 134.5 32c35.333 0 68 -5.33301 98 -16s56 -26 78 -46c45.333 41.333 108.333 62 189 62c36 0 68.333 -6.5 97 -19.5s51.167 -31 67.5 -54s24.5 -49.167 24.5 -78.5
c0 -53.333 -28.667 -94.666 -86 -123.999s-127 -45 -209 -47c5.33301 -20.667 18 -36.834 38 -48.501s45 -17.5 75 -17.5c50 0 97.667 11.667 143 35l41 -105c-17.333 -10.667 -42.166 -21.834 -74.499 -33.501zM570.999 355c-15.333 -20 -23.668 -43.667 -25.001 -71
c0.666992 -2 1 -5 1 -9c48 0.666992 85.167 6.66699 111.5 18s39.5 27.333 39.5 48c0 13.333 -5 24 -15 32s-24 12 -42 12c-31.333 0 -54.666 -10 -69.999 -30zM356.497 149.5c16.333 24.333 24.5 56.168 24.5 95.501s-8.16699 71.166 -24.5 95.499s-37.5 36.833 -63.5 37.5
c-27.333 0 -49.166 -12.167 -65.499 -36.5s-24.5 -56.5 -24.5 -96.5s8.16699 -72.167 24.5 -96.5s38.166 -36.5 65.499 -36.5c26 0.666992 47.167 13.167 63.5 37.5z" />
    <glyph glyph-name="Racute" unicode="&#x154;" horiz-adv-x="622" 
d="M610 12v-12.001h-178l-122 210c-6.66699 11.333 -12.5 18.833 -17.5 22.5s-14.167 5.5 -27.5 5.5h-35v-238h-170v690h238c81.333 0 146.833 -19.167 196.5 -57.5s74.5 -91.833 74.5 -160.5c0 -40.667 -10.167 -78 -30.5 -112s-48.5 -61.667 -84.5 -83v-3
c4 -3.33301 7.33301 -7.16602 10 -11.499l10 -16.5zM292 360.999c32 0 57.833 10.167 77.5 30.5s29.5 45.833 29.5 76.5c0 31.333 -9.16699 55.333 -27.5 72s-43.833 25 -76.5 25h-65v-204h62zM199 737.999l-34 93l250 99l36 -114l-1 -12z" />
    <glyph glyph-name="racute" unicode="&#x155;" horiz-adv-x="398" 
d="M54 490h135.998l15 -71h3c22.667 28.667 44.834 49 66.501 61s46.834 18.667 75.501 20c8.66699 0 17 -0.666992 25 -2l-14 -140c-14 2.66699 -24 3.66699 -30 3c-42 -2 -77.667 -18.667 -107 -50v-311h-170v490zM138.998 546l-43 86l236 125l47 -103v-11z" />
    <glyph glyph-name="Rcommaaccent" unicode="&#x156;" horiz-adv-x="622" 
d="M610 12v-12.001h-178l-122 210c-6.66699 11.333 -12.5 18.833 -17.5 22.5s-14.167 5.5 -27.5 5.5h-35v-238h-170v690h238c81.333 0 146.833 -19.167 196.5 -57.5s74.5 -91.833 74.5 -160.5c0 -40.667 -10.167 -78 -30.5 -112s-48.5 -61.667 -84.5 -83v-3
c4 -3.33301 7.33301 -7.16602 10 -11.499l10 -16.5zM292 360.999c32 0 57.833 10.167 77.5 30.5s29.5 45.833 29.5 76.5c0 31.333 -9.16699 55.333 -27.5 72s-43.833 25 -76.5 25h-65v-204h62zM374.5 -66.001c12.333 -13.333 18.501 -32.002 18.501 -56.002
c0.666992 -25.333 -5.33301 -53.166 -18 -83.499s-26.334 -55.833 -41.001 -76.5l-64 11c10.667 18 18.5 32.667 23.5 44s7.5 23.333 7.5 36c0 4.66699 -0.333008 8.33398 -1 11.001c-14 4 -25.333 12 -34 24s-13 26 -13 42c0 20.667 6.33301 37.167 19 49.5
s29.667 18.5 51 18.5c22 0 39.167 -6.66699 51.5 -20z" />
    <glyph glyph-name="rcommaaccent" unicode="&#x157;" horiz-adv-x="398" 
d="M54 490h135.998l15 -71h3c22.667 28.667 44.834 49 66.501 61s46.834 18.667 75.501 20c8.66699 0 17 -0.666992 25 -2l-14 -140c-14 2.66699 -24 3.66699 -30 3c-42 -2 -77.667 -18.667 -107 -50v-311h-170v490zM193.498 -67
c12.333 -13.333 18.501 -32.002 18.501 -56.002c0.666992 -25.333 -5.33301 -53.166 -18 -83.499s-26.334 -55.833 -41.001 -76.5l-64 11c10.667 18 18.5 32.667 23.5 44s7.5 23.333 7.5 36c0 4.66699 -0.333008 8.33398 -1 11.001c-14 4 -25.333 12 -34 24s-13 26 -13 42
c0 20.667 6.33301 37.167 19 49.5s29.667 18.5 51 18.5c22 0 39.167 -6.66699 51.5 -20z" />
    <glyph glyph-name="Rcaron" unicode="&#x158;" horiz-adv-x="622" 
d="M610 12v-12.001h-178l-122 210c-6.66699 11.333 -12.5 18.833 -17.5 22.5s-14.167 5.5 -27.5 5.5h-35v-238h-170v690h238c81.333 0 146.833 -19.167 196.5 -57.5s74.5 -91.833 74.5 -160.5c0 -40.667 -10.167 -78 -30.5 -112s-48.5 -61.667 -84.5 -83v-3
c4 -3.33301 7.33301 -7.16602 10 -11.499l10 -16.5zM292 360.999c32 0 57.833 10.167 77.5 30.5s29.5 45.833 29.5 76.5c0 31.333 -9.16699 55.333 -27.5 72s-43.833 25 -76.5 25h-65v-204h62zM91 861.999v8l99 37l95 -88l93 88l99 -36v-8l-139 -123h-106z" />
    <glyph glyph-name="rcaron" unicode="&#x159;" horiz-adv-x="398" 
d="M54 490h135.998l15 -71h3c22.667 28.667 44.834 49 66.501 61s46.834 18.667 75.501 20c8.66699 0 17 -0.666992 25 -2l-14 -140c-14 2.66699 -24 3.66699 -30 3c-42 -2 -77.667 -18.667 -107 -50v-311h-170v490zM23.998 684v7l104 39l86 -74l86 75l104 -39v-8l-134 -123
h-112z" />
    <glyph glyph-name="Sacute" unicode="&#x15a;" horiz-adv-x="585" 
d="M433 689c30.667 -7.33301 61.999 -18.666 93.999 -33.999l-39 -126c-57.333 26.667 -111 40 -161 40c-32 0 -56.333 -5.66699 -73 -17s-25 -28.333 -25 -51c0 -21.333 10 -38.666 30 -51.999s51.333 -28.666 94 -45.999c41.333 -17.333 75.166 -33.333 101.499 -48
s49 -34.834 68 -60.501s28.5 -57.5 28.5 -95.5c0 -42 -10.833 -78.667 -32.5 -110s-52.667 -55.666 -93 -72.999s-87.5 -26 -141.5 -26c-40 0 -81.667 4.83301 -125 14.5s-83 23.167 -119 40.5l41 131c31.333 -16 65.333 -28.667 102 -38s70.667 -14 102 -14
c30 0 53.667 6.16699 71 18.5s26 29.166 26 50.499s-9.66699 38.166 -29 50.499s-49.666 26.166 -90.999 41.499c-42 15.333 -76.333 30.333 -103 45s-49.667 35.167 -69 61.5s-29 60.166 -29 101.499c0 66.667 22.833 117.834 68.5 153.501s110.167 53.5 193.5 53.5
c42.667 0 79.334 -3.66699 110.001 -11zM239.999 738l-34 93l250 99l36 -114l-1 -12z" />
    <glyph glyph-name="sacute" unicode="&#x15b;" horiz-adv-x="465" 
d="M115.5 -1.5c-32.333 5.66699 -59.834 13.498 -82.501 23.498l22 114c45.333 -20 94 -30 146 -30c20 0 36.167 2.83301 48.5 8.5s18.833 14.167 19.5 25.5c0 11.333 -6 20.5 -18 27.5s-31.333 15.167 -58 24.5c-30.667 10.667 -56.167 21.334 -76.5 32.001s-38 26 -53 46
s-22.5 45.667 -22.5 77c0 46 20 83 60 111s93.333 42 160 42c58 0 107.667 -8.66699 149 -26l-22 -116c-40 17.333 -80 26 -120 26c-22 0 -38 -2.5 -48 -7.5s-15 -12.833 -15 -23.5c0 -12 6.5 -22.167 19.5 -30.5s33.5 -18.166 61.5 -29.499
c30.667 -12.667 55.834 -24.5 75.501 -35.5s36.667 -25.833 51 -44.5s21.5 -41.667 21.5 -69c0 -46.667 -19.5 -84 -58.5 -112s-92.167 -42 -159.5 -42c-34.667 0 -68.167 2.83301 -100.5 8.5zM160.999 545.998l-43 86l236 125l47 -103v-11z" />
    <glyph glyph-name="Scedilla" unicode="&#x15e;" horiz-adv-x="585" 
d="M433 689c30.667 -7.33301 61.999 -18.666 93.999 -33.999l-39 -126c-57.333 26.667 -111 40 -161 40c-32 0 -56.333 -5.66699 -73 -17s-25 -28.333 -25 -51c0 -21.333 10 -38.666 30 -51.999s51.333 -28.666 94 -45.999c41.333 -17.333 75.166 -33.333 101.499 -48
s49 -34.834 68 -60.501s28.5 -57.5 28.5 -95.5c0 -42 -10.833 -78.667 -32.5 -110s-52.667 -55.666 -93 -72.999s-87.5 -26 -141.5 -26c-40 0 -81.667 4.83301 -125 14.5s-83 23.167 -119 40.5l41 131c31.333 -16 65.333 -28.667 102 -38s70.667 -14 102 -14
c30 0 53.667 6.16699 71 18.5s26 29.166 26 50.499s-9.66699 38.166 -29 50.499s-49.666 26.166 -90.999 41.499c-42 15.333 -76.333 30.333 -103 45s-49.667 35.167 -69 61.5s-29 60.166 -29 101.499c0 66.667 22.833 117.834 68.5 153.501s110.167 53.5 193.5 53.5
c42.667 0 79.334 -3.66699 110.001 -11zM189.999 -260l15 70c13.333 -4 28.333 -6 45 -6c32.667 0 49 13.333 49 40c0 10 -5.83301 19.5 -17.5 28.5s-27.167 15.833 -46.5 20.5l15 72c44.667 -5.33301 78.5 -20 101.5 -44s34.5 -53 34.5 -87c0 -32 -11.333 -57.5 -34 -76.5
s-53.667 -28.5 -93 -28.5c-22.667 0 -45.667 3.66699 -69 11z" />
    <glyph glyph-name="scedilla" unicode="&#x15f;" horiz-adv-x="465" 
d="M115.5 -1.5c-32.333 5.66699 -59.834 13.498 -82.501 23.498l22 114c45.333 -20 94 -30 146 -30c20 0 36.167 2.83301 48.5 8.5s18.833 14.167 19.5 25.5c0 11.333 -6 20.5 -18 27.5s-31.333 15.167 -58 24.5c-30.667 10.667 -56.167 21.334 -76.5 32.001s-38 26 -53 46
s-22.5 45.667 -22.5 77c0 46 20 83 60 111s93.333 42 160 42c58 0 107.667 -8.66699 149 -26l-22 -116c-40 17.333 -80 26 -120 26c-22 0 -38 -2.5 -48 -7.5s-15 -12.833 -15 -23.5c0 -12 6.5 -22.167 19.5 -30.5s33.5 -18.166 61.5 -29.499
c30.667 -12.667 55.834 -24.5 75.501 -35.5s36.667 -25.833 51 -44.5s21.5 -41.667 21.5 -69c0 -46.667 -19.5 -84 -58.5 -112s-92.167 -42 -159.5 -42c-34.667 0 -68.167 2.83301 -100.5 8.5zM116.999 -260.002l15 70c13.333 -4 28.333 -6 45 -6c32.667 0 49 13.333 49 40
c0 10 -5.83301 19.5 -17.5 28.5s-27.167 15.833 -46.5 20.5l15 72c44.667 -5.33301 78.5 -20 101.5 -44s34.5 -53 34.5 -87c0 -32 -11.333 -57.5 -34 -76.5s-53.667 -28.5 -93 -28.5c-22.667 0 -45.667 3.66699 -69 11z" />
    <glyph glyph-name="Scaron" unicode="&#x160;" horiz-adv-x="585" 
d="M433 689c30.667 -7.33301 61.999 -18.666 93.999 -33.999l-39 -126c-57.333 26.667 -111 40 -161 40c-32 0 -56.333 -5.66699 -73 -17s-25 -28.333 -25 -51c0 -21.333 10 -38.666 30 -51.999s51.333 -28.666 94 -45.999c41.333 -17.333 75.166 -33.333 101.499 -48
s49 -34.834 68 -60.501s28.5 -57.5 28.5 -95.5c0 -42 -10.833 -78.667 -32.5 -110s-52.667 -55.666 -93 -72.999s-87.5 -26 -141.5 -26c-40 0 -81.667 4.83301 -125 14.5s-83 23.167 -119 40.5l41 131c31.333 -16 65.333 -28.667 102 -38s70.667 -14 102 -14
c30 0 53.667 6.16699 71 18.5s26 29.166 26 50.499s-9.66699 38.166 -29 50.499s-49.666 26.166 -90.999 41.499c-42 15.333 -76.333 30.333 -103 45s-49.667 35.167 -69 61.5s-29 60.166 -29 101.499c0 66.667 22.833 117.834 68.5 153.501s110.167 53.5 193.5 53.5
c42.667 0 79.334 -3.66699 110.001 -11zM132.999 862v8l99 37l95 -88l93 88l99 -36v-8l-139 -123h-106z" />
    <glyph glyph-name="scaron" unicode="&#x161;" horiz-adv-x="465" 
d="M115.5 -1.5c-32.333 5.66699 -59.834 13.498 -82.501 23.498l22 114c45.333 -20 94 -30 146 -30c20 0 36.167 2.83301 48.5 8.5s18.833 14.167 19.5 25.5c0 11.333 -6 20.5 -18 27.5s-31.333 15.167 -58 24.5c-30.667 10.667 -56.167 21.334 -76.5 32.001s-38 26 -53 46
s-22.5 45.667 -22.5 77c0 46 20 83 60 111s93.333 42 160 42c58 0 107.667 -8.66699 149 -26l-22 -116c-40 17.333 -80 26 -120 26c-22 0 -38 -2.5 -48 -7.5s-15 -12.833 -15 -23.5c0 -12 6.5 -22.167 19.5 -30.5s33.5 -18.166 61.5 -29.499
c30.667 -12.667 55.834 -24.5 75.501 -35.5s36.667 -25.833 51 -44.5s21.5 -41.667 21.5 -69c0 -46.667 -19.5 -84 -58.5 -112s-92.167 -42 -159.5 -42c-34.667 0 -68.167 2.83301 -100.5 8.5zM45.999 683.998v7l104 39l86 -74l86 75l104 -39v-8l-134 -123h-112z" />
    <glyph glyph-name="uni0162" unicode="&#x162;" horiz-adv-x="610" 
d="M593 559h-202v-559h-171v559h-202v131h575v-131zM197 -260l15 70c13.333 -4 28.333 -6 45 -6c32.667 0 49 13.333 49 40c0 10 -5.83301 19.5 -17.5 28.5s-27.167 15.833 -46.5 20.5l15 72c44.667 -5.33301 78.5 -20 101.5 -44s34.5 -53 34.5 -87
c0 -32 -11.333 -57.5 -34 -76.5s-53.667 -28.5 -93 -28.5c-22.667 0 -45.667 3.66699 -69 11z" />
    <glyph glyph-name="uni0163" unicode="&#x163;" horiz-adv-x="412" 
d="M392 6c-42.667 -10 -87.332 -15 -133.999 -15c-58.667 0 -100.334 15.333 -125.001 46s-37 81.667 -37 153v177h-76v123h79l36 159l131 1v-160h116v-123h-116v-159c0 -28.667 4.33301 -49 13 -61s23.667 -18 45 -18c14.667 0 33 1 55 3zM156.002 -260l15 70
c13.333 -4 28.333 -6 45 -6c32.667 0 49 13.333 49 40c0 10 -5.83301 19.5 -17.5 28.5s-27.167 15.833 -46.5 20.5l15 72c44.667 -5.33301 78.5 -20 101.5 -44s34.5 -53 34.5 -87c0 -32 -11.333 -57.5 -34 -76.5s-53.667 -28.5 -93 -28.5c-22.667 0 -45.667 3.66699 -69 11z
" />
    <glyph glyph-name="Tcaron" unicode="&#x164;" horiz-adv-x="610" 
d="M593 559h-202v-559h-171v559h-202v131h575v-131zM112 862v8l99 37l95 -88l93 88l99 -36v-8l-139 -123h-106z" />
    <glyph glyph-name="tcaron" unicode="&#x165;" horiz-adv-x="412" 
d="M392 6c-42.667 -10 -87.332 -15 -133.999 -15c-58.667 0 -100.334 15.333 -125.001 46s-37 81.667 -37 153v177h-76v123h79l36 159l131 1v-160h116v-123h-116v-159c0 -28.667 4.33301 -49 13 -61s23.667 -18 45 -18c14.667 0 33 1 55 3zM443.002 754
c12.667 -13.333 18.998 -32.001 18.998 -56.001c0.666992 -25.333 -5.16602 -53 -17.499 -83s-26.166 -56 -41.499 -78l-64 11c2 3.33301 5.83301 10.166 11.5 20.499s10.167 20.5 13.5 30.5s5 19.333 5 28c0 5.33301 -0.333008 9.33301 -1 12
c-13.333 4.66699 -24.333 12.834 -33 24.501s-13 25.5 -13 41.5c0 20.667 6.5 37.334 19.5 50.001s29.833 19 50.5 19c21.333 0 38.333 -6.66699 51 -20z" />
    <glyph glyph-name="Tbar" unicode="&#x166;" horiz-adv-x="610" 
d="M391 560v-159h116v-117h-116v-284h-171v284h-116v117h116v159h-202v130h575v-130h-202z" />
    <glyph glyph-name="tbar" unicode="&#x167;" horiz-adv-x="412" 
d="M392 6c-42.667 -10 -87.332 -15 -133.999 -15c-58.667 0 -100.334 15.333 -125.001 46s-37 81.667 -37 153v23h-75v88h75v66h-76v123h79l36 159l131 1v-160h116v-123h-116v-66h97v-88h-97v-5c0 -28.667 4.33301 -49 13 -61s23.667 -18 45 -18c14.667 0 33 1 55 3z" />
    <glyph glyph-name="Utilde" unicode="&#x168;" horiz-adv-x="696" 
d="M130 60c-49.333 46.667 -74.001 116 -74.001 208v422h171v-426c0 -46 10.333 -80.833 31 -104.5s50.667 -35.5 90 -35.5s69.333 11.833 90 35.5s31 58.5 31 104.5v426h170v-422c0 -92 -25 -161.333 -75 -208s-122.333 -70 -217 -70
c-95.333 0 -167.666 23.333 -216.999 70zM167.999 774c10 35.333 25.499 62.834 46.499 82.501s47.5 29.5 79.5 29.5c14 0 26.5 -2 37.5 -6s23.167 -9.66699 36.5 -17c7.33301 -4 14.5 -7.5 21.5 -10.5s13.5 -4.5 19.5 -4.5c9.33301 0 17.666 3.33301 24.999 10
s13 15.667 17 27l87 -22c-10 -34.667 -25.333 -61.834 -46 -81.501s-46.667 -29.5 -78 -29.5c-11.333 0 -21.666 1.66699 -30.999 5s-20 8.33301 -32 15c-20 11.333 -36.667 17 -50 17c-21.333 0 -37.666 -13 -48.999 -39z" />
    <glyph glyph-name="utilde" unicode="&#x169;" horiz-adv-x="594" 
d="M540 0h-137.002l-11 54h-4c-27.333 -23.333 -53.666 -39.833 -78.999 -49.5s-52.666 -14.5 -81.999 -14.5c-114 0 -171 65.333 -171 196v304h170v-295c0 -24.667 5.16699 -42.667 15.5 -54s25.833 -17 46.5 -17c30 0 57.333 9.66699 82 29v337h170v-490zM106.998 602
c19.333 74.667 59.334 111.999 120.001 111.999c14 0 26 -1.83301 36 -5.5s23 -9.5 39 -17.5c7.33301 -4 14.333 -7.5 21 -10.5s13 -4.5 19 -4.5c9.33301 0 17.833 3.33301 25.5 10s13.5 15.667 17.5 27l81 -32c-20.667 -74 -60.334 -111 -119.001 -111
c-14 0 -25.833 1.83301 -35.5 5.5s-20.167 8.83398 -31.5 15.501c-11.333 6 -19.833 10.167 -25.5 12.5s-12.5 3.5 -20.5 3.5c-22 0 -38 -13 -48 -39z" />
    <glyph glyph-name="Umacron" unicode="&#x16a;" horiz-adv-x="696" 
d="M130 60c-49.333 46.667 -74.001 116 -74.001 208v422h171v-426c0 -46 10.333 -80.833 31 -104.5s50.667 -35.5 90 -35.5s69.333 11.833 90 35.5s31 58.5 31 104.5v426h170v-422c0 -92 -25 -161.333 -75 -208s-122.333 -70 -217 -70
c-95.333 0 -167.666 23.333 -216.999 70zM499.999 768h-302v92h302v-92z" />
    <glyph glyph-name="umacron" unicode="&#x16b;" horiz-adv-x="594" 
d="M540 0h-137.002l-11 54h-4c-27.333 -23.333 -53.666 -39.833 -78.999 -49.5s-52.666 -14.5 -81.999 -14.5c-114 0 -171 65.333 -171 196v304h170v-295c0 -24.667 5.16699 -42.667 15.5 -54s25.833 -17 46.5 -17c30 0 57.333 9.66699 82 29v337h170v-490zM449.998 579
h-309v99h309v-99z" />
    <glyph glyph-name="Uring" unicode="&#x16e;" horiz-adv-x="696" 
d="M130 60c-49.333 46.667 -74.001 116 -74.001 208v422h171v-426c0 -46 10.333 -80.833 31 -104.5s50.667 -35.5 90 -35.5s69.333 11.833 90 35.5s31 58.5 31 104.5v426h170v-422c0 -92 -25 -161.333 -75 -208s-122.333 -70 -217 -70
c-95.333 0 -167.666 23.333 -216.999 70zM265.999 764.5c-22 18.333 -33 42.166 -33 71.499s11 53 33 71s50.667 27 86 27c36.667 0 66 -9 88 -27s33 -41.667 33 -71s-11 -53.166 -33 -71.499s-51.333 -27.5 -88 -27.5c-35.333 0 -64 9.16699 -86 27.5zM381.999 809
c7.33301 6.66699 11 15.667 11 27c0 10.667 -3.66699 19 -11 25s-17.333 9 -30 9c-12 0 -21.5 -3 -28.5 -9s-10.5 -14.333 -10.5 -25c0 -11.333 3.5 -20.333 10.5 -27s16.5 -10 28.5 -10c12.667 0 22.667 3.33301 30 10z" />
    <glyph glyph-name="uring" unicode="&#x16f;" horiz-adv-x="594" 
d="M540 0h-137.002l-11 54h-4c-27.333 -23.333 -53.666 -39.833 -78.999 -49.5s-52.666 -14.5 -81.999 -14.5c-114 0 -171 65.333 -171 196v304h170v-295c0 -24.667 5.16699 -42.667 15.5 -54s25.833 -17 46.5 -17c30 0 57.333 9.66699 82 29v337h170v-490zM209.498 570.5
c-21.667 18.333 -32.5 42.166 -32.5 71.499c0 30 10.833 53.833 32.5 71.5s50.167 26.5 85.5 26.5c36 0 65 -8.83301 87 -26.5s33 -41.5 33 -71.5c0 -29.333 -11 -53.166 -33 -71.499s-51 -27.5 -87 -27.5c-35.333 0 -63.833 9.16699 -85.5 27.5zM323.998 615.5
c8 7 12 15.833 12 26.5s-3.83301 19.334 -11.5 26.001s-17.5 10 -29.5 10c-11.333 0 -20.666 -3.33301 -27.999 -10s-11 -15.334 -11 -26.001s3.66699 -19.5 11 -26.5s16.666 -10.5 27.999 -10.5s21 3.5 29 10.5z" />
    <glyph glyph-name="Uhungarumlaut" unicode="&#x170;" horiz-adv-x="696" 
d="M130 60c-49.333 46.667 -74.001 116 -74.001 208v422h171v-426c0 -46 10.333 -80.833 31 -104.5s50.667 -35.5 90 -35.5s69.333 11.833 90 35.5s31 58.5 31 104.5v426h170v-422c0 -92 -25 -161.333 -75 -208s-122.333 -70 -217 -70
c-95.333 0 -167.666 23.333 -216.999 70zM259.999 733l-69 71l174 176l78 -88v-10zM484.999 731l-61 77l191 154l70 -93v-11z" />
    <glyph glyph-name="uhungarumlaut" unicode="&#x171;" horiz-adv-x="594" 
d="M540 0h-137.002l-11 54h-4c-27.333 -23.333 -53.666 -39.833 -78.999 -49.5s-52.666 -14.5 -81.999 -14.5c-114 0 -171 65.333 -171 196v304h170v-295c0 -24.667 5.16699 -42.667 15.5 -54s25.833 -17 46.5 -17c30 0 57.333 9.66699 82 29v337h170v-490zM182.998 534
l-72 68l162 180l83 -81v-10zM398.998 533l-65 73l178 163l75 -87l1 -11z" />
    <glyph glyph-name="Uogonek" unicode="&#x172;" horiz-adv-x="696" 
d="M639 690l-0.000976562 -422.001c0 -84.667 -21.167 -150.167 -63.5 -196.5s-104.166 -72.833 -185.499 -79.5c-15.333 -14.667 -27.333 -30.167 -36 -46.5s-13 -31.166 -13 -44.499s4.5 -23.333 13.5 -30s20.167 -10 33.5 -10l12 1l10 -70
c-18 -6.66699 -39.333 -10 -64 -10c-30 0 -54 8.66699 -72 26s-27 39 -27 65c0 20.667 3.66699 41.5 11 62.5s19.333 40.167 36 57.5c-78 8 -137.167 35 -177.5 81s-60.5 110.667 -60.5 194v422h171v-426c0 -46 10.333 -80.833 31 -104.5s50.667 -35.5 90 -35.5
s69.333 11.833 90 35.5s31 58.5 31 104.5v426h170z" />
    <glyph glyph-name="uogonek" unicode="&#x173;" horiz-adv-x="594" 
d="M551 -208c-18 -6.66699 -39.3359 -10 -64.0029 -10c-30 0 -54 8.66699 -72 26s-27 39 -27 65c0 22.667 4.33301 45 13 67s22.334 42 41.001 60h-39l-11 54h-4c-27.333 -23.333 -53.666 -39.833 -78.999 -49.5s-52.666 -14.5 -81.999 -14.5c-114 0 -171 65.333 -171 196
v304h170v-295c0 -24.667 5.16699 -42.667 15.5 -54s25.833 -17 46.5 -17c30 0 57.333 9.66699 82 29v337h170v-490c-18 -15.333 -32.167 -32 -42.5 -50s-15.5 -34.333 -15.5 -49c0 -13.333 4.5 -23.333 13.5 -30s20.167 -10 33.5 -10l12 1z" />
    <glyph glyph-name="Wcircumflex" unicode="&#x174;" horiz-adv-x="977" 
d="M10 690l168.003 -0.000976562l83 -384c9.33301 -56 14.666 -98.667 15.999 -128h9c3.33301 23.333 10.666 59 21.999 107l5 21l103 386h146l102 -386c13.333 -54 22 -96.667 26 -128h10c2 38.667 7 81.334 15 128.001l85 384h167l-159 -690h-194l-95 320
c-8.66699 30 -17.334 77 -26.001 141h-9c-6 -50 -14.667 -97 -26 -141l-96 -320h-194zM287.003 783.999v8l141 114h106l139 -115v-8l-99 -43l-93 65l-95 -65z" />
    <glyph glyph-name="wcircumflex" unicode="&#x175;" horiz-adv-x="784" 
d="M16 490h159l73 -334h6l72 334h132l72 -334h6l73 334h159l-136 -490h-169l-67 277h-8l-66 -277h-170zM444 721l134 -123v-8l-104 -39l-86 75l-86 -74l-104 39v7l134 123h112z" />
    <glyph glyph-name="Ycircumflex" unicode="&#x176;" horiz-adv-x="684" 
d="M259 248l-250 425v17h179l153 -304h5l152 304h179v-17l-250 -425v-248h-168v248zM139 784v8l141 114h106l139 -115v-8l-99 -43l-93 65l-95 -65z" />
    <glyph glyph-name="ycircumflex" unicode="&#x177;" horiz-adv-x="554" 
d="M52 -103c19.333 -5.33301 39.3311 -8.00098 59.998 -8.00098c25.333 0 46.333 6.83301 63 20.5s32.334 37.834 47.001 72.501l7 18h-37l-177 478v12h169l94 -335h2l99 335h168v-12l-183 -481c-28 -76.667 -61.667 -133.667 -101 -171s-85.666 -56 -138.999 -56
c-29.333 0 -61 6 -95 18zM336.998 720.999l134 -123v-8l-104 -39l-86 75l-86 -74l-104 39v7l134 123h112z" />
    <glyph glyph-name="Ydieresis" unicode="&#x178;" horiz-adv-x="684" 
d="M259 248l-250 425v17h179l153 -304h5l152 304h179v-17l-250 -425v-248h-168v248zM173.5 772.5c-14.333 13.667 -21.5 30.167 -21.5 49.5c0 18.667 7.16699 34.667 21.5 48s31.833 20 52.5 20c19.333 0 36.166 -6.66699 50.499 -20s21.5 -29.333 21.5 -48
c0 -19.333 -7.16699 -35.833 -21.5 -49.5s-31.166 -20.5 -50.499 -20.5c-20.667 0 -38.167 6.83301 -52.5 20.5zM383 772.5c-14 13.667 -21 30.167 -21 49.5c0 18.667 7 34.667 21 48s31 20 51 20s37.333 -6.66699 52 -20s22 -29.333 22 -48
c0 -19.333 -7.33301 -35.833 -22 -49.5s-32 -20.5 -52 -20.5s-37 6.83301 -51 20.5z" />
    <glyph glyph-name="Zacute" unicode="&#x179;" horiz-adv-x="588" 
d="M27 102l321 454v5l-59 -2h-253v131h519v-105l-322 -452v-4l46 2h277l-18 -131h-511v102zM218 738l-34 93l250 99l36 -114l-1 -12z" />
    <glyph glyph-name="zacute" unicode="&#x17a;" horiz-adv-x="487" 
d="M34 99l229.999 266v4c-3.33301 0 -10.166 -0.333008 -20.499 -1s-21.833 -1 -34.5 -1h-160v123h400v-102l-230 -261v-4c3.33301 0 10 0.333008 20 1s22 1 36 1l185 -1l-17 -124h-409v99zM173.999 546l-43 86l236 125l47 -103v-11z" />
    <glyph glyph-name="Zdotaccent" unicode="&#x17b;" horiz-adv-x="588" 
d="M27 102l321 454v5l-59 -2h-253v131h519v-105l-322 -452v-4l46 2h277l-18 -131h-511v102zM249.5 770.5c-13.667 13 -20.5 29.833 -20.5 50.5c0 20 6.83301 36.5 20.5 49.5s31.167 19.5 52.5 19.5s38.833 -6.5 52.5 -19.5s20.5 -29.5 20.5 -49.5
c0 -20.667 -6.83301 -37.5 -20.5 -50.5s-31.167 -19.5 -52.5 -19.5s-38.833 6.5 -52.5 19.5z" />
    <glyph glyph-name="zdotaccent" unicode="&#x17c;" horiz-adv-x="487" 
d="M34 99l229.999 266v4c-3.33301 0 -10.166 -0.333008 -20.499 -1s-21.833 -1 -34.5 -1h-160v123h400v-102l-230 -261v-4c3.33301 0 10 0.333008 20 1s22 1 36 1l185 -1l-17 -124h-409v99zM184.499 582c-17.667 16 -26.5 37.333 -26.5 64s8.83301 48.334 26.5 65.001
s40.834 25 69.501 25s51.834 -8.33301 69.501 -25s26.5 -38.334 26.5 -65.001s-8.83301 -48 -26.5 -64s-40.834 -24 -69.501 -24s-51.834 8 -69.501 24z" />
    <glyph glyph-name="Zcaron" unicode="&#x17d;" horiz-adv-x="588" 
d="M27 102l321 454v5l-59 -2h-253v131h519v-105l-322 -452v-4l46 2h277l-18 -131h-511v102zM110 862v8l99 37l95 -88l93 88l99 -36v-8l-139 -123h-106z" />
    <glyph glyph-name="zcaron" unicode="&#x17e;" horiz-adv-x="487" 
d="M34 99l229.999 266v4c-3.33301 0 -10.166 -0.333008 -20.499 -1s-21.833 -1 -34.5 -1h-160v123h400v-102l-230 -261v-4c3.33301 0 10 0.333008 20 1s22 1 36 1l185 -1l-17 -124h-409v99zM58.999 684v7l104 39l86 -74l86 75l104 -39v-8l-134 -123h-112z" />
    <glyph glyph-name="Ohorn" unicode="&#x1a0;" horiz-adv-x="726" 
d="M707.5 639c-18.333 -35.333 -43.167 -61.3359 -74.5 -78.0029c36.667 -59.333 55 -131.666 55 -216.999c0 -68 -12.167 -128.667 -36.5 -182s-61 -95.333 -110 -126s-108.833 -46 -179.5 -46s-130.5 15.333 -179.5 46s-85.833 72.667 -110.5 126s-37 114 -37 182
c0 68.667 12.333 129.834 37 183.501s61.5 95.834 110.5 126.501s108.833 46 179.5 46c75.333 0 139.333 -18.333 192 -55v1c32.667 0 49 38.333 49 115h133c-0.666992 -46 -10.167 -86.667 -28.5 -122zM475.499 181.997c27.667 38.667 41.5 92.667 41.5 162
c0 70 -13.833 124.5 -41.5 163.5s-65.5 58.5 -113.5 58.5c-48.667 0 -86.834 -19.5 -114.501 -58.5s-41.5 -93.5 -41.5 -163.5c0 -69.333 13.833 -123.333 41.5 -162s65.834 -58 114.501 -58c48 0 85.833 19.333 113.5 58z" />
    <glyph glyph-name="ohorn" unicode="&#x1a1;" horiz-adv-x="585" 
d="M586.5 447.5c-15.667 -33.667 -37.4971 -59.832 -65.4971 -78.499c17.333 -34 26.666 -74.667 27.999 -122c0 -50.667 -10.833 -95.5 -32.5 -134.5s-51.834 -69.167 -90.501 -90.5s-83 -32 -133 -32c-50.667 0 -95.5 10.5 -134.5 31.5s-69.333 50.667 -91 89
s-32.834 82.5 -33.501 132.5c0.666992 50.667 11.834 95.5 33.501 134.5s52 69.167 91 90.5s83.833 32 134.5 32c60.667 0 113 -15.667 157 -47c18.667 14 28 50.333 28 109h133c-0.666992 -42.667 -8.83398 -80.834 -24.501 -114.501zM356.503 149.502
c16.333 24.333 24.5 56.168 24.5 95.501s-8.16699 71.166 -24.5 95.499s-37.5 36.833 -63.5 37.5c-27.333 0 -49.166 -12.167 -65.499 -36.5s-24.5 -56.5 -24.5 -96.5s8.16699 -72.167 24.5 -96.5s38.166 -36.5 65.499 -36.5c26 0.666992 47.167 13.167 63.5 37.5z" />
    <glyph glyph-name="Uhorn" unicode="&#x1af;" horiz-adv-x="773" 
d="M796 638c-15.333 -33.333 -36.501 -59.667 -63.501 -79s-58.167 -29 -93.5 -29v-262c0 -92 -25 -161.333 -75 -208s-122.333 -70 -217 -70c-95.333 0 -167.666 23.333 -216.999 70s-74 116 -74 208v422h171v-426c0 -46 10.333 -80.833 31 -104.5s50.667 -35.5 90 -35.5
s69.333 11.833 90 35.5s31 58.5 31 104.5v426h170v-55c31.333 1.33301 47 39.666 47 114.999h133c0 -41.333 -7.66699 -78.666 -23 -111.999z" />
    <glyph glyph-name="uhorn" unicode="&#x1b0;" horiz-adv-x="685" 
d="M694.5 450.5c-15 -33 -35.834 -59.167 -62.501 -78.5s-57.334 -29.333 -92.001 -30v-342h-137l-11 54h-4c-27.333 -23.333 -53.666 -39.833 -78.999 -49.5s-52.666 -14.5 -81.999 -14.5c-114 0 -171 65.333 -171 196v304h170v-295c0 -24.667 5.16699 -42.667 15.5 -54
s25.833 -17 46.5 -17c30 0 57.333 9.66699 82 29v337h170v-43c29.333 4.66699 44 43 44 115h133c0 -41.333 -7.5 -78.5 -22.5 -111.5z" />
    <glyph glyph-name="uni01EA" unicode="&#x1ea;" horiz-adv-x="723" 
d="M366 -54.5c-8.66699 -16.333 -13 -31.168 -13 -44.501s4.5 -23.333 13.5 -30s20.167 -10 33.5 -10l12 1l10 -70c-18 -6.66699 -39.333 -10 -64 -10c-30 0 -54 8.66699 -72 26s-27 39 -27 65c0 48 16 88.333 48 121c-88 11.333 -155.333 48.833 -202 112.5
s-70 142.834 -70 237.501c0 68.667 12.333 129.834 37 183.501s61.5 95.834 110.5 126.501s108.833 46 179.5 46s130.5 -15.333 179.5 -46s85.667 -72.834 110 -126.501s36.5 -114.834 36.5 -183.501c0 -63.333 -10.667 -120.5 -32 -171.5s-53.5 -92.333 -96.5 -124
s-95.5 -50.5 -157.5 -56.5c-15.333 -14.667 -27.333 -30.167 -36 -46.5zM247.5 181.998c27.667 -38.667 65.834 -58 114.501 -58c48 0 85.833 19.333 113.5 58s41.5 92.667 41.5 162c0 70 -13.833 124.5 -41.5 163.5s-65.5 58.5 -113.5 58.5
c-48.667 0 -86.834 -19.5 -114.501 -58.5s-41.5 -93.5 -41.5 -163.5c0 -69.333 13.833 -123.333 41.5 -162z" />
    <glyph glyph-name="uni01EB" unicode="&#x1eb;" horiz-adv-x="583" 
d="M300.5 -54c-9 -16.667 -13.5029 -31.6689 -13.5029 -45.002s4.5 -23.333 13.5 -30s20.167 -10 33.5 -10l12 1l10 -70c-18 -6.66699 -39.333 -10 -64 -10c-30 0 -54 8.66699 -72 26s-27 39 -27 65c0 21.333 3.83301 42.5 11.5 63.5s19.834 40.167 36.501 57.5
c-62.667 10 -112.667 37.333 -150 82s-56.333 100.334 -57 167.001c0.666992 50.667 11.834 95.5 33.501 134.5s52 69.167 91 90.5s83.833 32 134.5 32c50 0 94.167 -10.5 132.5 -31.5s68.333 -50.667 90 -89s32.834 -82.5 33.501 -132.5
c-0.666992 -69.333 -20.167 -126.666 -58.5 -171.999s-89.5 -72.666 -153.5 -81.999c-15.333 -14.667 -27.5 -30.334 -36.5 -47.001zM227.497 148.498c16.333 -24.333 38.166 -36.498 65.499 -36.498c26 0.666992 47.167 13.167 63.5 37.5s24.5 56.166 24.5 95.499
s-8.16699 71.166 -24.5 95.499s-37.5 36.833 -63.5 37.5c-27.333 0 -49.166 -12.167 -65.499 -36.5s-24.5 -56.5 -24.5 -96.5s8.16699 -72.167 24.5 -96.5z" />
    <glyph glyph-name="AEacute" unicode="&#x1fc;" horiz-adv-x="990" 
d="M952 132l-17 -132h-429v155h-248l-82 -155h-166l367 690h568v-129h-273v-157h224v-121h-224v-151h280zM506 280v281h-33l-149 -281h182zM503 739l-34 93l250 99l36 -114l-1 -12z" />
    <glyph glyph-name="aeacute" unicode="&#x1fd;" horiz-adv-x="857" 
d="M80 52c-35.333 41.333 -53.0039 99.332 -53.0039 173.999c0 52.667 12.5 99.834 37.5 141.501s59.333 74.167 103 97.5s92.834 35 147.501 35c56.667 0 110.334 -10.333 161.001 -31l7 -9c41.333 26.667 92.666 40 153.999 40c37.333 0 71 -6.5 101 -19.5
s53.333 -31 70 -54s25 -48.833 25 -77.5c0 -55.333 -29.5 -96.333 -88.5 -123s-129.5 -40.334 -211.5 -41.001c4.66699 -22 17.334 -39.833 38.001 -53.5s46.334 -20.5 77.001 -20.5c50.667 0 98.667 11.667 144 35l41 -105c-16.667 -10.667 -41.5 -21.834 -74.5 -33.501
s-75.167 -17.5 -126.5 -17.5c-45.333 0 -85.166 7.33301 -119.499 22s-62.5 35.334 -84.5 62.001c-28 -27.333 -59.5 -48.166 -94.5 -62.499s-70.5 -21.5 -106.5 -21.5c-62.667 0 -111.667 20.667 -147 62zM640.496 294.499c27 12.333 40.502 28.833 40.502 49.5
c0 13.333 -5 24 -15 32s-23.333 12 -40 12c-32.667 0 -56.834 -10 -72.501 -30s-23.834 -45.333 -24.501 -76v-7c47.333 0.666992 84.5 7.16699 111.5 19.5zM353.998 160.999c-2 19.333 -3.00195 42.667 -3.00195 70l-1 142c-13.333 4 -26.666 6 -39.999 6
c-35.333 0 -63.666 -13.667 -84.999 -41s-32 -63 -32 -107c0 -37.333 7 -65.833 21 -85.5s34.333 -29.5 61 -29.5c28.667 0 55 15 79 45zM401.996 546l-43 86l236 125l47 -103v-11z" />
    <glyph glyph-name="Oslashacute" unicode="&#x1fe;" horiz-adv-x="722" 
d="M668 479.5c12.667 -41.667 19.002 -86.8359 19.002 -135.503c0 -68 -12.167 -128.667 -36.5 -182s-61 -95.333 -110 -126s-108.833 -46 -179.5 -46c-54.667 0 -104.667 10 -150 30l-68 -93l-97 68l70 97c-26.667 32 -46.834 69.333 -60.501 112
s-20.5 89.334 -20.5 140.001c0 68.667 12.167 129.834 36.5 183.501s61 95.834 110 126.501s108.833 46 179.5 46c59.333 0 111.666 -11.333 156.999 -34l66 90l101 -69l-72 -98c24 -31.333 42.333 -67.833 55 -109.5zM477.502 179.998c25.667 38 38.5 92.667 38.5 164
c0 72 -13 127.167 -39 165.5s-64.667 57.5 -116 57.5s-90 -19.167 -116 -57.5s-39 -93.5 -39 -165.5c0 -71.333 12.833 -126 38.5 -164s64.5 -57 116.5 -57s90.833 19 116.5 57zM273.002 737.998l-34 93l250 99l36 -114l-1 -12z" />
    <glyph glyph-name="oslashacute" unicode="&#x1ff;" horiz-adv-x="586" 
d="M527.5 355c13.667 -32.667 20.834 -68.665 21.501 -107.998c0 -50.667 -10.833 -95.5 -32.5 -134.5s-51.834 -69.167 -90.501 -90.5s-83 -32 -133 -32c-38 0 -72.667 6 -104 18l-58 -87l-66 43l55 83c-27.333 22.667 -48.333 50.667 -63 84
s-22.334 70.666 -23.001 111.999c0.666992 50.667 11.834 95.5 33.501 134.5s52 69.167 91 90.5s83.833 32 134.5 32c39.333 0 75.333 -6.66699 108 -20l65 95l67 -44l-64 -93c25.333 -22.667 44.833 -50.334 58.5 -83.001zM356.5 149.502
c16.333 24.333 24.5 56.168 24.5 95.501s-8.16699 71.166 -24.5 95.499s-37.5 36.833 -63.5 37.5c-27.333 0 -49.166 -12.167 -65.499 -36.5s-24.5 -56.5 -24.5 -96.5s8.16699 -72.167 24.5 -96.5s38.166 -36.5 65.499 -36.5c26 0.666992 47.167 13.167 63.5 37.5z
M217 546.004l-43 86l236 125l47 -103v-11z" />
    <glyph glyph-name="Scommaaccent" unicode="&#x218;" horiz-adv-x="585" 
d="M433 689c30.667 -7.33301 61.999 -18.666 93.999 -33.999l-39 -126c-57.333 26.667 -111 40 -161 40c-32 0 -56.333 -5.66699 -73 -17s-25 -28.333 -25 -51c0 -21.333 10 -38.666 30 -51.999s51.333 -28.666 94 -45.999c41.333 -17.333 75.166 -33.333 101.499 -48
s49 -34.834 68 -60.501s28.5 -57.5 28.5 -95.5c0 -42 -10.833 -78.667 -32.5 -110s-52.667 -55.666 -93 -72.999s-87.5 -26 -141.5 -26c-40 0 -81.667 4.83301 -125 14.5s-83 23.167 -119 40.5l41 131c31.333 -16 65.333 -28.667 102 -38s70.667 -14 102 -14
c30 0 53.667 6.16699 71 18.5s26 29.166 26 50.499s-9.66699 38.166 -29 50.499s-49.666 26.166 -90.999 41.499c-42 15.333 -76.333 30.333 -103 45s-49.667 35.167 -69 61.5s-29 60.166 -29 101.499c0 66.667 22.833 117.834 68.5 153.501s110.167 53.5 193.5 53.5
c42.667 0 79.334 -3.66699 110.001 -11zM346.499 -67c12.333 -13.333 18.501 -32.002 18.501 -56.002c0.666992 -25.333 -5.33301 -53.166 -18 -83.499s-26.334 -55.833 -41.001 -76.5l-64 11c10.667 18 18.5 32.667 23.5 44s7.5 23.333 7.5 36
c0 4.66699 -0.333008 8.33398 -1 11.001c-14 4 -25.333 12 -34 24s-13 26 -13 42c0 20.667 6.33301 37.167 19 49.5s29.667 18.5 51 18.5c22 0 39.167 -6.66699 51.5 -20z" />
    <glyph glyph-name="scommaaccent" unicode="&#x219;" horiz-adv-x="465" 
d="M115.5 -1.5c-32.333 5.66699 -59.834 13.498 -82.501 23.498l22 114c45.333 -20 94 -30 146 -30c20 0 36.167 2.83301 48.5 8.5s18.833 14.167 19.5 25.5c0 11.333 -6 20.5 -18 27.5s-31.333 15.167 -58 24.5c-30.667 10.667 -56.167 21.334 -76.5 32.001s-38 26 -53 46
s-22.5 45.667 -22.5 77c0 46 20 83 60 111s93.333 42 160 42c58 0 107.667 -8.66699 149 -26l-22 -116c-40 17.333 -80 26 -120 26c-22 0 -38 -2.5 -48 -7.5s-15 -12.833 -15 -23.5c0 -12 6.5 -22.167 19.5 -30.5s33.5 -18.166 61.5 -29.499
c30.667 -12.667 55.834 -24.5 75.501 -35.5s36.667 -25.833 51 -44.5s21.5 -41.667 21.5 -69c0 -46.667 -19.5 -84 -58.5 -112s-92.167 -42 -159.5 -42c-34.667 0 -68.167 2.83301 -100.5 8.5zM272.499 -67.002c12.333 -13.333 18.501 -32.002 18.501 -56.002
c0.666992 -25.333 -5.33301 -53.166 -18 -83.499s-26.334 -55.833 -41.001 -76.5l-64 11c10.667 18 18.5 32.667 23.5 44s7.5 23.333 7.5 36c0 4.66699 -0.333008 8.33398 -1 11.001c-14 4 -25.333 12 -34 24s-13 26 -13 42c0 20.667 6.33301 37.167 19 49.5
s29.667 18.5 51 18.5c22 0 39.167 -6.66699 51.5 -20z" />
    <glyph glyph-name="uni021A" unicode="&#x21a;" horiz-adv-x="610" 
d="M593 559h-202v-559h-171v559h-202v131h575v-131zM353.5 -67c12.333 -13.333 18.501 -32.002 18.501 -56.002c0.666992 -25.333 -5.33301 -53.166 -18 -83.499s-26.334 -55.833 -41.001 -76.5l-64 11c10.667 18 18.5 32.667 23.5 44s7.5 23.333 7.5 36
c0 4.66699 -0.333008 8.33398 -1 11.001c-14 4 -25.333 12 -34 24s-13 26 -13 42c0 20.667 6.33301 37.167 19 49.5s29.667 18.5 51 18.5c22 0 39.167 -6.66699 51.5 -20z" />
    <glyph glyph-name="uni021B" unicode="&#x21b;" horiz-adv-x="412" 
d="M392 6c-42.667 -10 -87.332 -15 -133.999 -15c-58.667 0 -100.334 15.333 -125.001 46s-37 81.667 -37 153v177h-76v123h79l36 159l131 1v-160h116v-123h-116v-159c0 -28.667 4.33301 -49 13 -61s23.667 -18 45 -18c14.667 0 33 1 55 3zM312.502 -67
c12.333 -13.333 18.501 -32.002 18.501 -56.002c0.666992 -25.333 -5.33301 -53.166 -18 -83.499s-26.334 -55.833 -41.001 -76.5l-64 11c10.667 18 18.5 32.667 23.5 44s7.5 23.333 7.5 36c0 4.66699 -0.333008 8.33398 -1 11.001c-14 4 -25.333 12 -34 24s-13 26 -13 42
c0 20.667 6.33301 37.167 19 49.5s29.667 18.5 51 18.5c22 0 39.167 -6.66699 51.5 -20z" />
    <glyph glyph-name="uni0237" unicode="&#x237;" horiz-adv-x="296" 
d="M-34 -103c31.333 2.66699 54.833 10.167 70.5 22.5s26.167 30.5 31.5 54.5s8 57.667 8 101v415h170v-438c0 -100.667 -21.167 -173 -63.5 -217s-108.5 -65.667 -198.5 -65z" />
    <glyph glyph-name="gravecomb" unicode="&#x300;" 
d="M-346 654l48 104l237 -125l-44 -87l-241 97v11z" />
    <glyph glyph-name="acutecomb" unicode="&#x301;" 
d="M-303 546l-43 86l236 125l47 -103v-11z" />
    <glyph glyph-name="uni0302" unicode="&#x302;" 
d="M-176 721l134 -123v-8l-104 -39l-86 75l-86 -74l-104 39v7l134 123h112z" />
    <glyph glyph-name="tildecomb" unicode="&#x303;" 
d="M-434 602c19.333 74.667 59.334 111.999 120.001 111.999c14 0 26 -1.83301 36 -5.5s23 -9.5 39 -17.5c7.33301 -4 14.333 -7.5 21 -10.5s13 -4.5 19 -4.5c9.33301 0 17.833 3.33301 25.5 10s13.5 15.667 17.5 27l81 -32c-20.667 -74 -60.334 -111 -119.001 -111
c-14 0 -25.833 1.83301 -35.5 5.5s-20.167 8.83398 -31.5 15.501c-11.333 6 -19.833 10.167 -25.5 12.5s-12.5 3.5 -20.5 3.5c-22 0 -38 -13 -48 -39z" />
    <glyph glyph-name="uni0304" unicode="&#x304;" 
d="M-58 578h-309v99h309v-99z" />
    <glyph glyph-name="uni0306" unicode="&#x306;" 
d="M-366 591c-30.667 30.667 -46.665 71 -47.998 121h108c2.66699 -20.667 9.83398 -37 21.501 -49s27.167 -18 46.5 -18c18.667 0 34 6 46 18s19.333 28.333 22 49h107c-0.666992 -49.333 -16.334 -89.5 -47.001 -120.5s-73.334 -46.5 -128.001 -46.5
s-97.334 15.333 -128.001 46z" />
    <glyph glyph-name="uni0307" unicode="&#x307;" 
d="M-227.5 582c-17.667 16 -26.5 37.333 -26.5 64s8.83301 48.334 26.5 65.001s40.834 25 69.501 25s51.834 -8.33301 69.501 -25s26.5 -38.334 26.5 -65.001s-8.83301 -48 -26.5 -64s-40.834 -24 -69.501 -24s-51.834 8 -69.501 24z" />
    <glyph glyph-name="uni0308" unicode="&#x308;" 
d="M-415 584c-14.667 14 -22 32 -22 54c0 22.667 7.33301 41 22 55s33.667 21 57 21c22.667 0 41.334 -7 56.001 -21s22 -32.333 22 -55c0 -22 -7.33301 -40 -22 -54s-33.334 -21 -56.001 -21c-23.333 0 -42.333 7 -57 21zM-197 584c-14.667 14 -22 32 -22 54
c0 22.667 7.33301 41 22 55s33.334 21 56.001 21c23.333 0 42.333 -7 57 -21s22 -32.333 22 -55c0 -22 -7.33301 -40 -22 -54s-33.667 -21 -57 -21c-22.667 0 -41.334 7 -56.001 21z" />
    <glyph glyph-name="hookabovecomb" unicode="&#x309;" 
d="M-85 749c22 -20 33 -47.335 33 -82.002c0 -35.333 -12 -63.666 -36 -84.999s-59.667 -34.666 -107 -39.999l-18 83c24 4.66699 40.667 10.167 50 16.5s14 14.5 14 24.5c0 19.333 -15.667 29 -47 29c-14.667 0 -28.667 -2.33301 -42 -7l-17 80
c23.333 7.33301 47.333 11 72 11c43.333 0 76 -10 98 -30z" />
    <glyph glyph-name="uni030A" unicode="&#x30a;" 
d="M-267.5 570.5c-21.667 18.333 -32.5 42.166 -32.5 71.499c0 30 10.833 53.833 32.5 71.5s50.167 26.5 85.5 26.5c36 0 65 -8.83301 87 -26.5s33 -41.5 33 -71.5c0 -29.333 -11 -53.166 -33 -71.499s-51 -27.5 -87 -27.5c-35.333 0 -63.833 9.16699 -85.5 27.5z
M-153 615.5c8 7 12 15.833 12 26.5s-3.83301 19.334 -11.5 26.001s-17.5 10 -29.5 10c-11.333 0 -20.666 -3.33301 -27.999 -10s-11 -15.334 -11 -26.001s3.66699 -19.5 11 -26.5s16.666 -10.5 27.999 -10.5s21 3.5 29 10.5z" />
    <glyph glyph-name="uni030B" unicode="&#x30b;" 
d="M-467 534l-72 68l162 180l83 -81v-10zM-251 533l-65 73l178 163l75 -87l1 -11z" />
    <glyph glyph-name="uni030C" unicode="&#x30c;" 
d="M-449 684v7l104 39l86 -74l86 75l104 -39v-8l-134 -123h-112z" />
    <glyph glyph-name="uni031B" unicode="&#x31b;" 
d="M-47 605c0 -42 -7.83398 -79.667 -23.501 -113s-37.167 -59.5 -64.5 -78.5s-58.666 -28.5 -93.999 -28.5v105c32.667 0 49 38.333 49 115h133z" />
    <glyph glyph-name="dotbelowcomb" unicode="&#x323;" 
d="M-225 -196c-17.333 16 -26 37.3311 -26 63.998s8.66699 48.334 26 65.001s40.333 25 69 25s51.834 -8.16699 69.501 -24.5s26.5 -38.166 26.5 -65.499c0 -26.667 -8.83301 -48 -26.5 -64s-40.834 -24 -69.501 -24s-51.667 8 -69 24z" />
    <glyph glyph-name="uni0326" unicode="&#x326;" 
d="M-81.5 -67c12.333 -13.333 18.501 -32.002 18.501 -56.002c0.666992 -25.333 -5.33301 -53.166 -18 -83.499s-26.334 -55.833 -41.001 -76.5l-64 11c10.667 18 18.5 32.667 23.5 44s7.5 23.333 7.5 36c0 4.66699 -0.333008 8.33398 -1 11.001c-14 4 -25.333 12 -34 24
s-13 26 -13 42c0 20.667 6.33301 37.167 19 49.5s29.667 18.5 51 18.5c22 0 39.167 -6.66699 51.5 -20z" />
    <glyph glyph-name="uni0327" unicode="&#x327;" 
d="M-252 -260l15 70c13.333 -4 28.333 -6 45 -6c32.667 0 49 13.333 49 40c0 10 -5.83301 19.5 -17.5 28.5s-27.167 15.833 -46.5 20.5l15 72c44.667 -5.33301 78.5 -20 101.5 -44s34.5 -53 34.5 -87c0 -32 -11.333 -57.5 -34 -76.5s-53.667 -28.5 -93 -28.5
c-22.667 0 -45.667 3.66699 -69 11z" />
    <glyph glyph-name="uni0328" unicode="&#x328;" 
d="M-199 -192c-18 17.333 -27.001 39 -27.001 65c0 22.667 4.33301 45 13 67s22.334 42 41.001 60h98c-18 -15.333 -32.167 -32 -42.5 -50s-15.5 -34.333 -15.5 -49c0 -13.333 4.5 -23.333 13.5 -30s20.167 -10 33.5 -10l12 1l10 -70c-18 -6.66699 -39.333 -10 -64 -10
c-30 0 -54 8.66699 -72 26z" />
    <glyph glyph-name="uni0335" unicode="&#x335;" 
d="M-480 655h390v-103h-390v103z" />
    <glyph glyph-name="uni0401" unicode="&#x401;" horiz-adv-x="553" 
d="M515 129l-17 -129h-438v690h443v-129h-274v-157h225v-121h-225v-154h286zM130.5 772.5c-14.333 13.667 -21.5 30.167 -21.5 49.5c0 18.667 7.16699 34.667 21.5 48s31.833 20 52.5 20c19.333 0 36.166 -6.66699 50.499 -20s21.5 -29.333 21.5 -48
c0 -19.333 -7.16699 -35.833 -21.5 -49.5s-31.166 -20.5 -50.499 -20.5c-20.667 0 -38.167 6.83301 -52.5 20.5zM340 772.5c-14 13.667 -21 30.167 -21 49.5c0 18.667 7 34.667 21 48s31 20 51 20s37.333 -6.66699 52 -20s22 -29.333 22 -48
c0 -19.333 -7.33301 -35.833 -22 -49.5s-32 -20.5 -52 -20.5s-37 6.83301 -51 20.5z" />
    <glyph glyph-name="uni0410" unicode="&#x410;" horiz-adv-x="698" 
d="M462 155h-233l-45 -155h-174l229 690h214l229 -690h-175zM426 280l-46.001 157c-1.33301 4.66699 -5.66602 19 -12.999 43l-17 61h-8c-4.66699 -18.667 -10.167 -38.667 -16.5 -60s-10.833 -36 -13.5 -44l-46 -157h160z" />
    <glyph glyph-name="uni0411" unicode="&#x411;" horiz-adv-x="616" 
d="M516.5 358.5c41 -37 61.5 -87.5 61.5 -151.5s-20.5 -114.5 -61.5 -151.5s-97.5 -55.5 -169.5 -55.5h-287v692h445v-130h-274l-1 -148h117c72 0 128.5 -18.5 169.5 -55.5zM384.5 143.5c17 15.667 25.5 36.832 25.5 63.499s-8.5 47.834 -25.5 63.501
s-41.167 23.5 -72.5 23.5h-85v-174h85c31.333 0 55.5 7.83301 72.5 23.5z" />
    <glyph glyph-name="uni0412" unicode="&#x412;" horiz-adv-x="623" 
d="M60 690h256c76 0 134.833 -16 176.5 -48s62.5 -75.667 62.5 -131c0 -32.667 -7.83301 -62.5 -23.5 -89.5s-36.5 -45.833 -62.5 -56.5v-5c36 -8 64.333 -25.833 85 -53.5s31 -62.5 31 -104.5c0 -61.333 -20.5 -110.333 -61.5 -147s-97.5 -55 -169.5 -55h-294v690zM297 406
c27.333 0 49.167 8.5 65.5 25.5s24.5 37.167 24.5 60.5c0 25.333 -8 45 -24 59s-38.333 21 -67 21h-69v-166h70zM308.001 120c34.667 0 61.5 8.66699 80.5 26s28.5 40.666 28.5 69.999c0 24.667 -10 44.334 -30 59.001s-46.667 22 -80 22h-80v-177h81z" />
    <glyph glyph-name="uni0413" unicode="&#x413;" horiz-adv-x="524" 
d="M487 562h-256l-1 -562h-170v692h427v-130z" />
    <glyph glyph-name="uni0414" unicode="&#x414;" horiz-adv-x="792" 
d="M773 145v-342h-161v197h-440v-197h-161v197h-1l1 145h40c48.667 0 75.667 25 81 75l49 470h495v-545h97zM511 145l0.000976562 400h-187l-35 -332c-2.66699 -24 -8.33398 -46.667 -17.001 -68h239z" />
    <glyph glyph-name="uni0415" unicode="&#x415;" horiz-adv-x="553" 
d="M515 129l-17 -129h-438v690h443v-129h-274v-157h225v-121h-225v-154h286z" />
    <glyph glyph-name="uni0416" unicode="&#x416;" horiz-adv-x="975" 
d="M980 12v-13h-181l-187 279h-40v-278h-169v278h-40l-187 -279h-181v13l223 333v10l-208 318v16h171l188 -287h34v288h169v-288h34l188 287h172v-16l-209 -318v-10z" />
    <glyph glyph-name="uni0417" unicode="&#x417;" horiz-adv-x="628" 
d="M50 39l40.001 125c52 -26.667 113 -40 183 -40c94 0 141 27 141 81c0 26 -11.667 46 -35 60s-59.333 21 -108 21h-116l16 123h97c40 0 71 6.83301 93 20.5s33 33.5 33 59.5c0 49.333 -40 74 -120 74c-60 0 -118 -13.667 -174 -41l-44 121
c35.333 18.667 73.833 33 115.5 43s83.5 15 125.5 15c52 0 97.167 -7.66699 135.5 -23s68 -37 89 -65s31.5 -60.667 31.5 -98c0 -72.667 -38.333 -122.667 -115 -150v-2c43.333 -8.66699 77.166 -27.5 101.499 -56.5s36.5 -65.833 36.5 -110.5
c0 -63.333 -25.667 -113.5 -77 -150.5s-124 -55.5 -218 -55.5c-87.333 0 -164.333 16.333 -231 49z" />
    <glyph glyph-name="uni0418" unicode="&#x418;" horiz-adv-x="705" 
d="M479 0v347l1 58h-6l-272 -405h-141v690h166l-2 -348l-1 -54h7l265 402h148v-690h-165z" />
    <glyph glyph-name="uni0419" unicode="&#x419;" horiz-adv-x="705" 
d="M479 0v347l1 58h-6l-272 -405h-141v690h166l-2 -348l-1 -54h7l265 402h148v-690h-165zM469 796.5c-28 -28.333 -66.6709 -42.501 -116.004 -42.501s-88.166 14.167 -116.499 42.5s-43.166 66.833 -44.499 115.5h100c2.66699 -21.333 9.33398 -37.166 20.001 -47.499
s24.334 -15.5 41.001 -15.5c34 0 54 21 60 63h99c-0.666992 -48.667 -15 -87.167 -43 -115.5z" />
    <glyph glyph-name="uni041A" unicode="&#x41a;" horiz-adv-x="639" 
d="M644 12v-13h-181l-187 279h-46v-278h-169v690h169v-288h40l188 287h171v-16l-208 -318v-10z" />
    <glyph glyph-name="uni041B" unicode="&#x41b;" horiz-adv-x="758" 
d="M696 0h-170v545h-171l-39 -361c-6.66699 -65.333 -29.5 -114 -68.5 -146s-89.167 -48 -150.5 -48c-29.333 0 -58.333 5.66699 -87 17l25 116c18.667 -5.33301 34.667 -8 48 -8c38 0 60 25 66 75l51 500h496v-690z" />
    <glyph glyph-name="uni041C" unicode="&#x41c;" horiz-adv-x="824" 
d="M60 690h158l194 -332h2l190 332h159v-690h-164v416l-157 -273h-59l-159 270v-413h-164v690z" />
    <glyph glyph-name="uni041D" unicode="&#x41d;" horiz-adv-x="701" 
d="M640 692v-692h-170v268h-239v-268h-170v692h170v-287h239v287h170z" />
    <glyph glyph-name="uni041E" unicode="&#x41e;" horiz-adv-x="723" 
d="M541.5 654c49 -30.667 85.667 -72.834 110 -126.501s36.5 -114.834 36.5 -183.501c0 -68 -12.167 -128.667 -36.5 -182s-61 -95.333 -110 -126s-108.833 -46 -179.5 -46s-130.5 15.333 -179.5 46s-85.833 72.667 -110.5 126s-37 114 -37 182
c0 68.667 12.333 129.834 37 183.501s61.5 95.834 110.5 126.501s108.833 46 179.5 46s130.5 -15.333 179.5 -46zM475.5 182c27.667 38.667 41.5 92.667 41.5 162c0 70 -13.833 124.5 -41.5 163.5s-65.5 58.5 -113.5 58.5c-48.667 0 -86.834 -19.5 -114.501 -58.5
s-41.5 -93.5 -41.5 -163.5c0 -69.333 13.833 -123.333 41.5 -162s65.834 -58 114.501 -58c48 0 85.833 19.333 113.5 58z" />
    <glyph glyph-name="uni041F" unicode="&#x41f;" horiz-adv-x="695" 
d="M633 0h-170v545h-233v-545h-170v690h573v-690z" />
    <glyph glyph-name="uni0420" unicode="&#x420;" horiz-adv-x="591" 
d="M437 662c42 -18.667 74.333 -45.333 97 -80s34 -75.667 34 -123s-11.333 -88.5 -34 -123.5s-55.167 -62 -97.5 -81s-91.5 -28.5 -147.5 -28.5h-59v-226h-170v690h229c56.667 0 106 -9.33301 148 -28zM230 564.001v-212h62c32.667 0 58.5 9.66699 77.5 29s28.5 45 28.5 77
c0 32.667 -9.33301 58.5 -28 77.5s-44.667 28.5 -78 28.5h-62z" />
    <glyph glyph-name="uni0421" unicode="&#x421;" horiz-adv-x="603" 
d="M587 29c-57.333 -26 -121.666 -38.999 -192.999 -38.999c-112.667 0 -200.334 29.333 -263.001 88s-94.334 147 -95.001 265v2v2c0.666992 72 16 134.667 46 188s72 94.166 126 122.499s116.333 42.5 187 42.5h1c66.667 0 129.667 -13 189 -39l-45 -126
c-27.333 10 -51.5 17.167 -72.5 21.5s-44.833 6.5 -71.5 6.5c-55.333 0 -100.333 -17.833 -135 -53.5s-52.334 -90.5 -53.001 -164.5c0.666992 -74.667 17.834 -129.667 51.501 -165s78.5 -53 134.5 -53c26 0 49.833 2.5 71.5 7.5s46.834 13.167 75.501 24.5z" />
    <glyph glyph-name="uni0422" unicode="&#x422;" horiz-adv-x="610" 
d="M593 559h-202v-559h-171v559h-202v131h575v-131z" />
    <glyph glyph-name="uni0423" unicode="&#x423;" horiz-adv-x="653" 
d="M653 690l-0.999023 -12l-235 -499c-22.667 -48 -45.834 -85.667 -69.501 -113s-50 -46.833 -79 -58.5s-63.5 -17.5 -103.5 -17.5c-20.667 0 -39.5 1.66699 -56.5 5s-35.167 8.33301 -54.5 15l41 126c22.667 -8.66699 46 -13 70 -13c37.333 0 68.333 21.667 93 65
l-249 490l-1 12h181l144 -332l143 332h177z" />
    <glyph glyph-name="uni0424" unicode="&#x424;" horiz-adv-x="885" 
d="M766 150.5c-56.667 -47.667 -136.334 -72.167 -239.001 -73.5v-87h-169v87c-103.333 1.33301 -183.333 25.833 -240 73.5s-85.334 113.5 -86.001 197.5c1.33301 84 30.333 149.5 87 196.5s136.334 71.167 239.001 72.5v83h169v-83
c102.667 -1.33301 182.334 -25.5 239.001 -72.5s85.667 -112.5 87 -196.5c-1.33301 -84 -30.333 -149.833 -87 -197.5zM239.5 250.5c25.667 -21.667 65.167 -33.498 118.5 -35.498v264c-52.667 -2 -92 -13.833 -118 -35.5s-39 -53.834 -39 -96.501
s12.833 -74.834 38.5 -96.501zM645.5 250.502c25.667 21.667 38.5 53.832 38.5 96.499s-13 74.834 -39 96.501s-65.333 33.5 -118 35.5v-264c53.333 2 92.833 13.833 118.5 35.5z" />
    <glyph glyph-name="uni0425" unicode="&#x425;" horiz-adv-x="709" 
d="M15 12l232 341v4l-216 316v17h172l147 -225h6l147 225h172v-17l-216 -316v-4l234 -341v-12h-181l-155 244h-7l-155 -244h-180v12z" />
    <glyph glyph-name="uni0426" unicode="&#x426;" horiz-adv-x="756" 
d="M730 145v-343h-160v198h-510v690h170v-545h229v545h170v-545h101z" />
    <glyph glyph-name="uni0427" unicode="&#x427;" horiz-adv-x="668" 
d="M607 0h-170.001v243h-4c-44.667 -33.333 -99.667 -50 -165 -50c-144 0 -216 78.333 -216 235v264h170v-264c0 -67.333 34 -101 102 -101c22.667 0 43.834 3.83301 63.501 11.5s36.167 18.5 49.5 32.5v321h170v-692z" />
    <glyph glyph-name="uni0428" unicode="&#x428;" horiz-adv-x="1011" 
d="M950 690v-690h-890v690h170v-547h190v547h170v-547h190v547h170z" />
    <glyph glyph-name="uni0429" unicode="&#x429;" horiz-adv-x="1076" 
d="M1051 145v-342h-160v197h-831v690h170v-547l190 -1v548h170v-548h190v548h170v-545h101z" />
    <glyph glyph-name="uni042A" unicode="&#x42a;" horiz-adv-x="727" 
d="M626 365.5c42 -37.667 63 -89.167 63 -154.5s-21 -116.833 -63 -154.5s-99.333 -56.5 -172 -56.5h-283v559h-171v133h342l-1 -270h113c72.667 0 130 -18.833 172 -56.5zM494.5 144.5c17.667 16.333 26.5 38.5 26.5 66.5s-8.83301 50.167 -26.5 66.5
s-42.5 24.5 -74.5 24.5h-82v-182h82c32 0 56.833 8.16699 74.5 24.5z" />
    <glyph glyph-name="uni042B" unicode="&#x42b;" horiz-adv-x="877" 
d="M514.5 365.5c42.333 -37.667 63.5 -89.167 63.5 -154.5s-21.167 -116.833 -63.5 -154.5s-99.5 -56.5 -171.5 -56.5h-283v692h171l-1 -270h113c72 0 129.167 -18.833 171.5 -56.5zM383 144.5c18 16.333 27 38.5 27 66.5s-9 50.167 -27 66.5s-43 24.5 -75 24.5h-81v-182h81
c32 0 57 8.16699 75 24.5zM816 0h-170v690h170v-690z" />
    <glyph glyph-name="uni042C" unicode="&#x42c;" horiz-adv-x="616" 
d="M514.5 365.5c42.333 -37.667 63.5 -89.167 63.5 -154.5s-21.167 -116.833 -63.5 -154.5s-99.5 -56.5 -171.5 -56.5h-283v692h171l-1 -270h113c72 0 129.167 -18.833 171.5 -56.5zM383 144.5c18 16.333 27 38.5 27 66.5s-9 50.167 -27 66.5s-43 24.5 -75 24.5h-81v-182h81
c32 0 57 8.16699 75 24.5z" />
    <glyph glyph-name="uni042D" unicode="&#x42d;" horiz-adv-x="620" 
d="M584 343c-0.666992 -118 -32.833 -206.334 -96.5 -265.001s-153.167 -88 -268.5 -88c-78 0 -145.667 13 -203 39l46 130c28.667 -11.333 54.334 -19.5 77.001 -24.5s49.334 -7.5 80.001 -7.5c49.333 0 90.166 12 122.499 36s53.5 61.667 63.5 113h-270l-1 138h271
c-10.667 50.667 -32.5 88.167 -65.5 112.5s-73.5 36.5 -121.5 36.5c-32 0 -59 -2 -81 -6s-46.667 -11.333 -74 -22l-44 126c29.333 12.667 59.666 22.334 90.999 29.001s67.333 10 108 10c73.333 0 137.333 -14.167 192 -42.5s97.167 -69 127.5 -122
s45.833 -115.833 46.5 -188.5v-2v-2z" />
    <glyph glyph-name="uni042E" unicode="&#x42e;" horiz-adv-x="1039" 
d="M858 654c48 -30.667 84.168 -72.832 108.501 -126.499s36.5 -114.834 36.5 -183.501c0 -68 -12.167 -128.667 -36.5 -182s-60.5 -95.333 -108.5 -126s-106.667 -46 -176 -46c-89.333 0 -160.833 25.333 -214.5 76s-86.834 118 -99.501 202h-138v-268h-170v692h170v-287
h135c10.667 89.333 43.167 160.833 97.5 214.5s127.5 80.5 219.5 80.5c69.333 0 128 -15.333 176 -46zM792.001 180.002c26.667 37.333 39.998 92 39.998 164c0 72.667 -13.167 127.834 -39.5 165.501s-63.166 56.5 -110.499 56.5c-46 0 -82.333 -18.833 -109 -56.5
s-40 -92.834 -40 -165.501c0 -71.333 13.333 -125.833 40 -163.5s63 -56.5 109 -56.5c46.667 0 83.334 18.667 110.001 56z" />
    <glyph glyph-name="uni042F" unicode="&#x42f;" horiz-adv-x="622" 
d="M563 690l-0.000976562 -689.998h-170v255h-25c-12.667 0 -21.167 -1.83301 -25.5 -5.5s-10.166 -11.167 -17.499 -22.5l-140 -227h-181v12l148 239l10 16.5c2.66699 4.33301 6 8.16602 10 11.499v3c-40 16.667 -71 41.167 -93 73.5s-33 71.166 -33 116.499
c0 69.333 24.667 123 74 161s115 57 197 57h246zM392.999 381.002v184h-73c-32.667 0 -58.167 -8 -76.5 -24s-27.5 -39 -27.5 -69c0 -29.333 9.16699 -52 27.5 -68s43.833 -23.667 76.5 -23h73z" />
    <glyph glyph-name="uni0430" unicode="&#x430;" horiz-adv-x="587" 
d="M88 52c-36 41.333 -54.001 99.332 -54.001 173.999c0 52.667 12.5 99.834 37.5 141.501s59.667 74.167 104 97.5s94.5 35 150.5 35c40.667 0 76.334 -3.66699 107.001 -11s62 -18.333 94 -33v-334l4 -122h-138l-17 58h-4c-35.333 -45.333 -80 -68 -134 -68
c-64 0 -114 20.667 -150 62zM328.999 126.999c12 7.33301 22.667 17.333 32 30l-1 216c-14.667 4 -27 6 -37 6c-36 0 -64.833 -13.667 -86.5 -41s-32.5 -63 -32.5 -107c0 -36.667 7 -65 21 -85s34 -30 60 -30c17.333 0 32 3.66699 44 11z" />
    <glyph glyph-name="uni0431" unicode="&#x431;" horiz-adv-x="581" 
d="M433 445c36 -19.333 63.833 -46.8359 83.5 -82.5029s29.834 -77.167 30.501 -124.5c0 -48 -10.833 -90.833 -32.5 -128.5s-51.834 -67 -90.501 -88s-83 -31.5 -133 -31.5c-51.333 0 -96.333 11.167 -135 33.5s-68.667 55 -90 98s-32 94.833 -32 155.5
c0 64.667 10 123.834 30 177.501s48 98.167 84 133.5s77.333 58.333 124 69l59 14c22 4.66699 37.167 11.334 45.5 20.001s12.5 21 12.5 37h128c0 -51.333 -10 -89.666 -30 -114.999s-54.333 -43.666 -103 -54.999l-62 -14c-56 -12.667 -94 -42.334 -114 -89.001
c32.667 12.667 66 19 100 19c47.333 0 89 -9.66699 125 -29zM355 145.997c16 22 24 52 24 90c0 38.667 -8 68.834 -24 90.501s-37.333 32.5 -64 32.5c-27.333 0 -49.166 -10.333 -65.499 -31s-24.5 -49.667 -24.5 -87c0 -40.667 8.16699 -72.334 24.5 -95.001
s38.166 -34 65.499 -34c26.667 0.666992 48 12 64 34z" />
    <glyph glyph-name="uni0432" unicode="&#x432;" horiz-adv-x="560" 
d="M54 490h275.999c60 0 105.333 -11.667 136 -35s46 -55.333 46 -96c0 -55.333 -28.667 -90 -86 -104v-4c36.667 -5.33301 64.334 -18.833 83.001 -40.5s28 -47.167 28 -76.5c0 -41.333 -16.5 -74 -49.5 -98s-80.5 -36 -142.5 -36h-291v490zM303.999 289
c16.667 0 29.667 3.99902 39 11.999s14 20 14 36c0 14.667 -4.5 25.834 -13.5 33.501s-21.5 11.5 -37.5 11.5h-89v-93h87zM315.999 107.999c16 0 28.833 4.16797 38.5 12.501s14.5 19.833 14.5 34.5c0 15.333 -5 27.166 -15 35.499s-23.333 12.5 -40 12.5h-97v-95h99z" />
    <glyph glyph-name="uni0433" unicode="&#x433;" horiz-adv-x="417" 
d="M388 361h-177l-1 -361h-170v490h348v-129z" />
    <glyph glyph-name="uni0434" unicode="&#x434;" horiz-adv-x="658" 
d="M643 128v-284h-161v156h-314v-156h-161v156h-1l1 128h17c24 0 42.167 4.83301 54.5 14.5s19.5 24.5 21.5 44.5l32 303h423v-362h88zM393 128v233h-113l-20 -182c-2 -18.667 -6 -35.667 -12 -51h145z" />
    <glyph glyph-name="uni0435" unicode="&#x435;" horiz-adv-x="517" 
d="M492 41c-17.333 -10.667 -42.168 -21.835 -74.501 -33.502s-74.5 -17.5 -126.5 -17.5c-56.667 0 -104.167 10.833 -142.5 32.5s-67 51.334 -86 89.001s-28.5 80.167 -28.5 127.5c0 76.667 22.333 139.334 67 188.001s111.334 73 200.001 73c36 0 68.333 -6.5 97 -19.5
s51.167 -31 67.5 -54s24.5 -49.167 24.5 -78.5c0 -53.333 -28.667 -94.666 -86 -123.999s-127 -45 -209 -47c5.33301 -20.667 18 -36.834 38 -48.501s45 -17.5 75 -17.5c50 0 97.667 11.667 143 35zM210.998 351.499c-15.333 -22.333 -22.668 -47.833 -22.001 -76.5
c48 0.666992 85.333 6.66699 112 18s40 27.333 40 48c0 13.333 -5 24 -15 32s-24 12 -42 12c-33.333 0 -57.666 -11.167 -72.999 -33.5z" />
    <glyph glyph-name="uni0436" unicode="&#x436;" horiz-adv-x="808" 
d="M816 12v-12h-176l-125 178h-26v-178h-169v178h-27l-124 -178h-177v12l168 231v10l-156 225v12h167l128 -191h21v191h169v-191h20l129 191h166v-12l-156 -225v-10z" />
    <glyph glyph-name="uni0437" unicode="&#x437;" horiz-adv-x="519" 
d="M128.5 2.5c-33 6.33301 -65.168 16.167 -96.501 29.5l35 110c44.667 -20.667 97.334 -31 158.001 -31c64.667 0 97 14 97 42s-33.667 42 -101 42h-98l13 107h81c30 0 52.333 3.33301 67 10s22 17 22 31c0 13.333 -7 23 -21 29s-35.667 9 -65 9
c-27.333 0 -52.166 -2.66699 -74.499 -8s-46.166 -13.666 -71.499 -24.999l-40 104c66 32 138 48 216 48c69.333 0 122.5 -11.833 159.5 -35.5s55.5 -56.834 55.5 -99.501c0 -24.667 -7 -45.334 -21 -62.001s-36.333 -30 -67 -40v-2c33.333 -8 59.666 -22.667 78.999 -44
s29 -48 29 -80c0 -45.333 -20.333 -80.666 -61 -105.999s-102.334 -38 -185.001 -38c-40.667 0 -77.5 3.16699 -110.5 9.5z" />
    <glyph glyph-name="uni0438" unicode="&#x438;" horiz-adv-x="572" 
d="M353 0v158l7 83h-4l-167 -241h-135v490h165v-147l-7 -99h5l165 246h136v-490h-165z" />
    <glyph glyph-name="uni0439" unicode="&#x439;" horiz-adv-x="572" 
d="M353 0v158l7 83h-4l-167 -241h-135v490h165v-147l-7 -99h5l165 246h136v-490h-165zM403 596.5c-28 -28.333 -66.6709 -42.501 -116.004 -42.501s-88.166 14.167 -116.499 42.5s-43.166 66.833 -44.499 115.5h100c2.66699 -21.333 9.33398 -37.166 20.001 -47.499
s24.334 -15.5 41.001 -15.5c34 0 54 21 60 63h99c-0.666992 -48.667 -15 -87.167 -43 -115.5z" />
    <glyph glyph-name="uni043A" unicode="&#x43a;" horiz-adv-x="559" 
d="M549 11v-11h-179l-116 178h-30v-178h-170v490h170v-191h24l121 191h171v-12l-144 -225v-9z" />
    <glyph glyph-name="uni043B" unicode="&#x43b;" horiz-adv-x="647" 
d="M590 0h-169v362h-103l-25 -206c-6.66699 -54 -28 -94.667 -64 -122s-82 -41 -138 -41c-30 0 -58.333 5.66699 -85 17l26 119c18 -5.33301 32.667 -8 44 -8c33.333 0 52 17.333 56 52l38 317h420v-490z" />
    <glyph glyph-name="uni043C" unicode="&#x43c;" horiz-adv-x="645" 
d="M42 490h149l130 -208h1l130 208h150v-490h-166v251l-90 -149h-48l-90 145v-247h-166v490z" />
    <glyph glyph-name="uni043D" unicode="&#x43d;" horiz-adv-x="595" 
d="M538 490v-490h-170v185h-141v-185h-170v490h170v-179h141v179h170z" />
    <glyph glyph-name="uni043E" unicode="&#x43e;" horiz-adv-x="583" 
d="M425.5 468.5c38.333 -21 68.333 -50.667 90 -89s32.834 -82.5 33.501 -132.5c0 -50.667 -10.833 -95.5 -32.5 -134.5s-51.834 -69.167 -90.501 -90.5s-83 -32 -133 -32c-50.667 0 -95.5 10.5 -134.5 31.5s-69.333 50.667 -91 89s-32.834 82.5 -33.501 132.5
c0.666992 50.667 11.834 95.5 33.501 134.5s52 69.167 91 90.5s83.833 32 134.5 32c50 0 94.167 -10.5 132.5 -31.5zM227.5 341.5c-16.333 -24.333 -24.5 -56.498 -24.5 -96.498s8.16699 -72.167 24.5 -96.5s38.166 -36.5 65.499 -36.5c26 0.666992 47.167 13.167 63.5 37.5
s24.5 56.166 24.5 95.499s-8.16699 71.166 -24.5 95.499s-37.5 36.833 -63.5 37.5c-27.333 0 -49.166 -12.167 -65.499 -36.5z" />
    <glyph glyph-name="uni043F" unicode="&#x43f;" horiz-adv-x="595" 
d="M538 0h-170v365h-141v-365h-170v490h481v-490z" />
    <glyph glyph-name="uni0440" unicode="&#x440;" horiz-adv-x="587" 
d="M54 490h136l11 -51h4c42 40.667 89 61 141 61c64.667 0 115.167 -22.5 151.5 -67.5s54.5 -107.833 54.5 -188.5s-18.167 -143.5 -54.5 -188.5s-86.833 -67.5 -151.5 -67.5c-44.667 0 -84 14 -118 42h-4v-250h-170v710zM361 149.5c14 21.667 21 53.167 21 94.5
s-7 73 -21 95s-35 33 -63 33s-53 -11 -75 -33l-1 -189c22 -22 47.333 -33 76 -33c28 0 49 10.833 63 32.5z" />
    <glyph glyph-name="uni0441" unicode="&#x441;" horiz-adv-x="477" 
d="M106 57c-48 44 -72 106.333 -72 187c0 80 24.333 142.5 73 187.5s114 67.833 196 68.5c54 0 102 -8 144 -24l-22 -125c-13.333 6 -29.833 10.833 -49.5 14.5s-37.167 5.5 -52.5 5.5c-40.667 0 -70.834 -11 -90.501 -33s-29.5 -53 -29.5 -93s9.83301 -71 29.5 -93
s49.834 -33 90.501 -33c16 0 34.5 1.83301 55.5 5.5s38.167 8.5 51.5 14.5l22 -125c-39.333 -16 -90 -24 -152 -24c-81.333 0.666992 -146 23 -194 67z" />
    <glyph glyph-name="uni0442" unicode="&#x442;" horiz-adv-x="495" 
d="M478 365h-145v-365h-170v365h-146v125h461v-125z" />
    <glyph glyph-name="uni0443" unicode="&#x443;" horiz-adv-x="554" 
d="M52 -103c19.333 -5.33301 39.3311 -8.00098 59.998 -8.00098c25.333 0 46.333 6.83301 63 20.5s32.334 37.834 47.001 72.501l7 18h-37l-177 478v12h169l94 -335h2l99 335h168v-12l-183 -481c-28 -76.667 -61.667 -133.667 -101 -171s-85.666 -56 -138.999 -56
c-29.333 0 -61 6 -95 18z" />
    <glyph glyph-name="uni0444" unicode="&#x444;" horiz-adv-x="751" 
d="M694.5 110c-22.333 -38 -53.833 -67.1689 -94.5 -87.502s-87.334 -31.166 -140.001 -32.499v-210h-169v210c-52.667 1.33301 -99.334 12.333 -140.001 33s-72.334 50.167 -95.001 88.5s-34 83.5 -34 135.5c0 50.667 11.333 94.834 34 132.501s54.334 67 95.001 88
s87.334 31.833 140.001 32.5v220h169v-220c52.667 -0.666992 99.334 -11.5 140.001 -32.5s72.167 -50.5 94.5 -88.5s33.5 -82.667 33.5 -134c0 -52 -11.167 -97 -33.5 -135zM211.5 149.498c19 -23 45.499 -35.833 79.499 -38.5v267
c-33.333 -2.66699 -59.666 -15.167 -78.999 -37.5s-29 -53.5 -29 -93.5c0 -42 9.5 -74.5 28.5 -97.5zM539.499 149.498c19 23 28.499 55.5 28.499 97.5c0 40 -9.66699 71.167 -29 93.5s-45.666 34.833 -78.999 37.5v-267c34 2.66699 60.5 15.5 79.5 38.5z" />
    <glyph glyph-name="uni0445" unicode="&#x445;" horiz-adv-x="552" 
d="M9 18l158 231v3l-157 226v12h164l97 -156h8l97 156h166v-12l-158 -226v-3l159 -231v-18h-159l-103 147h-10l-101 -147h-161v18z" />
    <glyph glyph-name="uni0446" unicode="&#x446;" horiz-adv-x="617" 
d="M613 129v-274h-162v145h-394v490h170v-361h135v361h170v-361h81z" />
    <glyph glyph-name="uni0447" unicode="&#x447;" horiz-adv-x="572" 
d="M515 0l-171 -0.000976562v157h-3c-33.333 -23.333 -76 -35 -128 -35c-114.667 0 -172 62.333 -172 187v181h170v-180c0 -19.333 5.33301 -33.666 16 -42.999s27 -14 49 -14c14 0 27 1.83301 39 5.5s21.667 8.5 29 14.5v217h171v-490z" />
    <glyph glyph-name="uni0448" unicode="&#x448;" horiz-adv-x="861" 
d="M804 490v-490h-747v490h170v-361h119v361h170v-361h118v361h170z" />
    <glyph glyph-name="uni0449" unicode="&#x449;" horiz-adv-x="889" 
d="M885 129v-274h-161v145h-667v490h170v-361h119v361h170v-361h118v361h170v-361h81z" />
    <glyph glyph-name="uni044A" unicode="&#x44a;" horiz-adv-x="617" 
d="M533.5 279c35.667 -28 53.5 -67.333 53.5 -118s-17.833 -90.167 -53.5 -118.5s-84.834 -42.5 -147.501 -42.5h-266v368h-120v122h291l-1 -169h96c62.667 0 111.834 -14 147.501 -42zM403 122.5c10 9 15 21.833 15 38.5c0 16 -5 28.5 -15 37.5s-25.333 13.5 -46 13.5h-70
v-103h70c20.667 0 36 4.5 46 13.5z" />
    <glyph glyph-name="uni044B" unicode="&#x44b;" horiz-adv-x="816" 
d="M470.5 279c35.667 -28 53.5 -67.333 53.5 -118s-17.833 -90.167 -53.5 -118.5s-84.834 -42.5 -147.501 -42.5h-266v490h170l-1 -169h97c62.667 0 111.834 -14 147.501 -42zM759 490v-490h-170v490h170zM340 122.5c10 9 15 21.833 15 38.5c0 16 -5 28.5 -15 37.5
s-25.333 13.5 -46 13.5h-70v-103h70c20.667 0 36 4.5 46 13.5z" />
    <glyph glyph-name="uni044C" unicode="&#x44c;" horiz-adv-x="554" 
d="M470.5 279c35.667 -28 53.5 -67.333 53.5 -118s-17.833 -90.167 -53.5 -118.5s-84.834 -42.5 -147.501 -42.5h-266v490h170l-1 -169h97c62.667 0 111.834 -14 147.501 -42zM340 122.5c10 9 15 21.833 15 38.5c0 16 -5 28.5 -15 37.5s-25.333 13.5 -46 13.5h-70v-103h70
c20.667 0 36 4.5 46 13.5z" />
    <glyph glyph-name="uni044D" unicode="&#x44d;" horiz-adv-x="487" 
d="M321.5 469.5c41.667 -20.333 73.9971 -49.666 96.9971 -87.999s34.5 -83.833 34.5 -136.5c0 -82.667 -24.167 -145.5 -72.5 -188.5s-116.833 -64.5 -205.5 -64.5c-30.667 0 -57.167 2 -79.5 6s-45.166 10.333 -68.499 19l41 116c32 -12.667 65.667 -19 101 -19
c26 0 49.333 6.16699 70 18.5s35.667 31.166 45 56.499h-169v113h170c-9.33301 26 -24.166 45.167 -44.499 57.5s-44.5 18.5 -72.5 18.5c-38 0 -71.333 -6 -100 -18l-39 112c20.667 9.33301 42.334 16.333 65.001 21s50 7 82 7c55.333 0 103.833 -10.167 145.5 -30.5z" />
    <glyph glyph-name="uni044E" unicode="&#x44e;" horiz-adv-x="844" 
d="M699 465.5c37.333 -23 65.166 -53.667 83.499 -92s27.5 -81.5 27.5 -129.5s-9 -91 -27 -129s-45.833 -68.333 -83.5 -91s-84.5 -34 -140.5 -34c-69.333 0 -124.666 16.667 -165.999 50s-68 78 -80 134h-86v-174h-170v490h170v-193h83c9.33301 60.667 35 109.667 77 147
s99.333 56 172 56c56 0 102.667 -11.5 140 -34.5zM619 146c15.333 22.667 23 55.334 23 98.001c0 43.333 -7.66699 76.5 -23 99.5s-35.333 34.5 -60 34.5c-26 0 -46.667 -11.5 -62 -34.5s-23 -56.167 -23 -99.5c0 -42.667 7.66699 -75.334 23 -98.001s36 -34 62 -34
c24.667 0 44.667 11.333 60 34z" />
    <glyph glyph-name="uni044F" unicode="&#x44f;" horiz-adv-x="552" 
d="M495 490l-0.000976562 -490h-170v169h-8c-9.33301 0 -17.166 -2 -23.499 -6s-12.5 -11.333 -18.5 -22l-85 -141h-180v11l92 145c8.66699 14 17 23.667 25 29v2c-31.333 12 -55.333 30 -72 54s-25 53.333 -25 88c0 52 18.333 91.833 55 119.5s88 41.5 154 41.5h256z
M324.999 278v103h-67c-18.667 0 -33.334 -4.66699 -44.001 -14s-16 -22 -16 -38s5.33301 -28.5 16 -37.5s25.334 -13.5 44.001 -13.5h67z" />
    <glyph glyph-name="uni0451" unicode="&#x451;" horiz-adv-x="517" 
d="M492 41c-17.333 -10.667 -42.168 -21.835 -74.501 -33.502s-74.5 -17.5 -126.5 -17.5c-56.667 0 -104.167 10.833 -142.5 32.5s-67 51.334 -86 89.001s-28.5 80.167 -28.5 127.5c0 76.667 22.333 139.334 67 188.001s111.334 73 200.001 73c36 0 68.333 -6.5 97 -19.5
s51.167 -31 67.5 -54s24.5 -49.167 24.5 -78.5c0 -53.333 -28.667 -94.666 -86 -123.999s-127 -45 -209 -47c5.33301 -20.667 18 -36.834 38 -48.501s45 -17.5 75 -17.5c50 0 97.667 11.667 143 35zM210.998 351.499c-15.333 -22.333 -22.668 -47.833 -22.001 -76.5
c48 0.666992 85.333 6.66699 112 18s40 27.333 40 48c0 13.333 -5 24 -15 32s-24 12 -42 12c-33.333 0 -57.666 -11.167 -72.999 -33.5zM103.996 583.999c-14.667 14 -22 32 -22 54c0 22.667 7.33301 41 22 55s33.667 21 57 21c22.667 0 41.334 -7 56.001 -21
s22 -32.333 22 -55c0 -22 -7.33301 -40 -22 -54s-33.334 -21 -56.001 -21c-23.333 0 -42.333 7 -57 21zM321.996 583.999c-14.667 14 -22 32 -22 54c0 22.667 7.33301 41 22 55s33.334 21 56.001 21c23.333 0 42.333 -7 57 -21s22 -32.333 22 -55
c0 -22 -7.33301 -40 -22 -54s-33.667 -21 -57 -21c-22.667 0 -41.334 7 -56.001 21z" />
    <glyph glyph-name="Wgrave" unicode="&#x1e80;" horiz-adv-x="977" 
d="M10 690l168.003 -0.000976562l83 -384c9.33301 -56 14.666 -98.667 15.999 -128h9c3.33301 23.333 10.666 59 21.999 107l5 21l103 386h146l102 -386c13.333 -54 22 -96.667 26 -128h10c2 38.667 7 81.334 15 128.001l85 384h167l-159 -690h-194l-95 320
c-8.66699 30 -17.334 77 -26.001 141h-9c-6 -50 -14.667 -97 -26 -141l-96 -320h-194zM300.003 815.999l35 114l250 -99l-34 -93l-251 66v12z" />
    <glyph glyph-name="wgrave" unicode="&#x1e81;" horiz-adv-x="784" 
d="M16 490h159l73 -334h6l72 334h132l72 -334h6l73 334h159l-136 -490h-169l-67 277h-8l-66 -277h-170zM216 654l48 104l237 -125l-44 -87l-241 97v11z" />
    <glyph glyph-name="Wacute" unicode="&#x1e82;" horiz-adv-x="977" 
d="M10 690l168.003 -0.000976562l83 -384c9.33301 -56 14.666 -98.667 15.999 -128h9c3.33301 23.333 10.666 59 21.999 107l5 21l103 386h146l102 -386c13.333 -54 22 -96.667 26 -128h10c2 38.667 7 81.334 15 128.001l85 384h167l-159 -690h-194l-95 320
c-8.66699 30 -17.334 77 -26.001 141h-9c-6 -50 -14.667 -97 -26 -141l-96 -320h-194zM397.003 737.999l-34 93l250 99l36 -114l-1 -12z" />
    <glyph glyph-name="wacute" unicode="&#x1e83;" horiz-adv-x="784" 
d="M16 490h159l73 -334h6l72 334h132l72 -334h6l73 334h159l-136 -490h-169l-67 277h-8l-66 -277h-170zM315 546l-43 86l236 125l47 -103v-11z" />
    <glyph glyph-name="Wdieresis" unicode="&#x1e84;" horiz-adv-x="977" 
d="M10 690l168.003 -0.000976562l83 -384c9.33301 -56 14.666 -98.667 15.999 -128h9c3.33301 23.333 10.666 59 21.999 107l5 21l103 386h146l102 -386c13.333 -54 22 -96.667 26 -128h10c2 38.667 7 81.334 15 128.001l85 384h167l-159 -690h-194l-95 320
c-8.66699 30 -17.334 77 -26.001 141h-9c-6 -50 -14.667 -97 -26 -141l-96 -320h-194zM321.503 772.499c-14.333 13.667 -21.5 30.167 -21.5 49.5c0 18.667 7.16699 34.667 21.5 48s31.833 20 52.5 20c19.333 0 36.166 -6.66699 50.499 -20s21.5 -29.333 21.5 -48
c0 -19.333 -7.16699 -35.833 -21.5 -49.5s-31.166 -20.5 -50.499 -20.5c-20.667 0 -38.167 6.83301 -52.5 20.5zM531.003 772.499c-14 13.667 -21 30.167 -21 49.5c0 18.667 7 34.667 21 48s31 20 51 20s37.333 -6.66699 52 -20s22 -29.333 22 -48
c0 -19.333 -7.33301 -35.833 -22 -49.5s-32 -20.5 -52 -20.5s-37 6.83301 -51 20.5z" />
    <glyph glyph-name="wdieresis" unicode="&#x1e85;" horiz-adv-x="784" 
d="M16 490h159l73 -334h6l72 334h132l72 -334h6l73 334h159l-136 -490h-169l-67 277h-8l-66 -277h-170zM224 584c-14.667 14 -22 32 -22 54c0 22.667 7.33301 41 22 55s33.667 21 57 21c22.667 0 41.334 -7 56.001 -21s22 -32.333 22 -55c0 -22 -7.33301 -40 -22 -54
s-33.334 -21 -56.001 -21c-23.333 0 -42.333 7 -57 21zM442 584c-14.667 14 -22 32 -22 54c0 22.667 7.33301 41 22 55s33.334 21 56.001 21c23.333 0 42.333 -7 57 -21s22 -32.333 22 -55c0 -22 -7.33301 -40 -22 -54s-33.667 -21 -57 -21c-22.667 0 -41.334 7 -56.001 21z
" />
    <glyph glyph-name="uni1EA0" unicode="&#x1ea0;" horiz-adv-x="700" 
d="M462 155h-233l-45 -155h-174l229 690h214l229 -690h-175zM426 280l-46.001 157c-1.33301 4.66699 -5.66602 19 -12.999 43l-17 61h-8c-4.66699 -18.667 -10.167 -38.667 -16.5 -60s-10.833 -36 -13.5 -44l-46 -157h160zM277.999 -196c-17.333 16 -26 37.3311 -26 63.998
s8.66699 48.334 26 65.001s40.333 25 69 25s51.834 -8.16699 69.501 -24.5s26.5 -38.166 26.5 -65.499c0 -26.667 -8.83301 -48 -26.5 -64s-40.834 -24 -69.501 -24s-51.667 8 -69 24z" />
    <glyph glyph-name="uni1EA1" unicode="&#x1ea1;" horiz-adv-x="587" 
d="M88 52c-36 41.333 -54.001 99.332 -54.001 173.999c0 52.667 12.5 99.834 37.5 141.501s59.667 74.167 104 97.5s94.5 35 150.5 35c40.667 0 76.334 -3.66699 107.001 -11s62 -18.333 94 -33v-334l4 -122h-138l-17 58h-4c-35.333 -45.333 -80 -68 -134 -68
c-64 0 -114 20.667 -150 62zM328.999 126.999c12 7.33301 22.667 17.333 32 30l-1 216c-14.667 4 -27 6 -37 6c-36 0 -64.833 -13.667 -86.5 -41s-32.5 -63 -32.5 -107c0 -36.667 7 -65 21 -85s34 -30 60 -30c17.333 0 32 3.66699 44 11zM225.999 -191.501
c-16 15 -24 34.833 -24 59.5c0 25.333 8 45.666 24 60.999s37.333 23 64 23s48.167 -7.66699 64.5 -23s24.5 -35.666 24.5 -60.999c0 -24.667 -8.16699 -44.5 -24.5 -59.5s-37.833 -22.5 -64.5 -22.5s-48 7.5 -64 22.5z" />
    <glyph glyph-name="uni1EA2" unicode="&#x1ea2;" horiz-adv-x="698" 
d="M462 155h-233l-45 -155h-174l229 690h214l229 -690h-175zM426 280l-46.001 157c-1.33301 4.66699 -5.66602 19 -12.999 43l-17 61h-8c-4.66699 -18.667 -10.167 -38.667 -16.5 -60s-10.833 -36 -13.5 -44l-46 -157h160zM416.999 949c22 -20 33 -47.335 33 -82.002
c0 -35.333 -12 -63.666 -36 -84.999s-59.667 -34.666 -107 -39.999l-18 83c24 4.66699 40.667 10.167 50 16.5s14 14.5 14 24.5c0 19.333 -15.667 29 -47 29c-14.667 0 -28.667 -2.33301 -42 -7l-17 80c23.333 7.33301 47.333 11 72 11c43.333 0 76 -10 98 -30z" />
    <glyph glyph-name="uni1EA3" unicode="&#x1ea3;" horiz-adv-x="587" 
d="M88 52c-36 41.333 -54.001 99.332 -54.001 173.999c0 52.667 12.5 99.834 37.5 141.501s59.667 74.167 104 97.5s94.5 35 150.5 35c40.667 0 76.334 -3.66699 107.001 -11s62 -18.333 94 -33v-334l4 -122h-138l-17 58h-4c-35.333 -45.333 -80 -68 -134 -68
c-64 0 -114 20.667 -150 62zM328.999 126.999c12 7.33301 22.667 17.333 32 30l-1 216c-14.667 4 -27 6 -37 6c-36 0 -64.833 -13.667 -86.5 -41s-32.5 -63 -32.5 -107c0 -36.667 7 -65 21 -85s34 -30 60 -30c17.333 0 32 3.66699 44 11zM382.999 748.999
c22 -20 33 -47.335 33 -82.002c0 -35.333 -12 -63.666 -36 -84.999s-59.667 -34.666 -107 -39.999l-18 83c24 4.66699 40.667 10.167 50 16.5s14 14.5 14 24.5c0 19.333 -15.667 29 -47 29c-14.667 0 -28.667 -2.33301 -42 -7l-17 80c23.333 7.33301 47.333 11 72 11
c43.333 0 76 -10 98 -30z" />
    <glyph glyph-name="uni1EA4" unicode="&#x1ea4;" horiz-adv-x="700" 
d="M462 155h-233l-45 -155h-174l229 690h214l229 -690h-175zM426 280l-46.001 157c-1.33301 4.66699 -5.66602 19 -12.999 43l-17 61h-8c-4.66699 -18.667 -10.167 -38.667 -16.5 -60s-10.833 -36 -13.5 -44l-46 -157h160zM543.999 858l-93 60l108 173l98 -74l6 -10z
M400.999 904l134 -123v-8l-104 -39l-86 75l-86 -74l-104 39v7l134 123h112z" />
    <glyph glyph-name="uni1EA5" unicode="&#x1ea5;" horiz-adv-x="587" 
d="M88 52c-36 41.333 -54.001 99.332 -54.001 173.999c0 52.667 12.5 99.834 37.5 141.501s59.667 74.167 104 97.5s94.5 35 150.5 35c40.667 0 76.334 -3.66699 107.001 -11s62 -18.333 94 -33v-334l4 -122h-138l-17 58h-4c-35.333 -45.333 -80 -68 -134 -68
c-64 0 -114 20.667 -150 62zM328.999 126.999c12 7.33301 22.667 17.333 32 30l-1 216c-14.667 4 -27 6 -37 6c-36 0 -64.833 -13.667 -86.5 -41s-32.5 -63 -32.5 -107c0 -36.667 7 -65 21 -85s34 -30 60 -30c17.333 0 32 3.66699 44 11zM506.999 674.999l-93 60l108 173
l98 -74l6 -10zM363.999 720.999l134 -123v-8l-104 -39l-86 75l-86 -74l-104 39v7l134 123h112z" />
    <glyph glyph-name="uni1EA6" unicode="&#x1ea6;" horiz-adv-x="700" 
d="M462 155h-233l-45 -155h-174l229 690h214l229 -690h-175zM426 280l-46.001 157c-1.33301 4.66699 -5.66602 19 -12.999 43l-17 61h-8c-4.66699 -18.667 -10.167 -38.667 -16.5 -60s-10.833 -36 -13.5 -44l-46 -157h160zM420.999 1017l98 74l108 -173l-93 -60l-119 149z
M534.999 781v-7l-104 -39l-86 74l-86 -75l-104 39v8l134 123h112z" />
    <glyph glyph-name="uni1EA7" unicode="&#x1ea7;" horiz-adv-x="587" 
d="M88 52c-36 41.333 -54.001 99.332 -54.001 173.999c0 52.667 12.5 99.834 37.5 141.501s59.667 74.167 104 97.5s94.5 35 150.5 35c40.667 0 76.334 -3.66699 107.001 -11s62 -18.333 94 -33v-334l4 -122h-138l-17 58h-4c-35.333 -45.333 -80 -68 -134 -68
c-64 0 -114 20.667 -150 62zM328.999 126.999c12 7.33301 22.667 17.333 32 30l-1 216c-14.667 4 -27 6 -37 6c-36 0 -64.833 -13.667 -86.5 -41s-32.5 -63 -32.5 -107c0 -36.667 7 -65 21 -85s34 -30 60 -30c17.333 0 32 3.66699 44 11zM388.999 833.999l98 74l108 -173
l-93 -60l-119 149zM502.999 597.999v-7l-104 -39l-86 74l-86 -75l-104 39v8l134 123h112z" />
    <glyph glyph-name="uni1EA8" unicode="&#x1ea8;" horiz-adv-x="700" 
d="M462 155h-233l-45 -155h-174l229 690h214l229 -690h-175zM426 280l-46.001 157c-1.33301 4.66699 -5.66602 19 -12.999 43l-17 61h-8c-4.66699 -18.667 -10.167 -38.667 -16.5 -60s-10.833 -36 -13.5 -44l-46 -157h160zM425.999 904l134 -123v-8l-104 -39l-86 75l-86 -74
l-104 39v7l134 123h112zM620.999 1069c22 -20 33 -47.335 33 -82.002c0 -35.333 -12 -63.666 -36 -84.999s-59.667 -34.666 -107 -39.999l-18 83c24 4.66699 40.667 10.167 50 16.5s14 14.5 14 24.5c0 19.333 -15.667 29 -47 29c-14.667 0 -28.667 -2.33301 -42 -7l-17 80
c23.333 7.33301 47.333 11 72 11c43.333 0 76 -10 98 -30z" />
    <glyph glyph-name="uni1EA9" unicode="&#x1ea9;" horiz-adv-x="587" 
d="M88 52c-36 41.333 -54.001 99.332 -54.001 173.999c0 52.667 12.5 99.834 37.5 141.501s59.667 74.167 104 97.5s94.5 35 150.5 35c40.667 0 76.334 -3.66699 107.001 -11s62 -18.333 94 -33v-334l4 -122h-138l-17 58h-4c-35.333 -45.333 -80 -68 -134 -68
c-64 0 -114 20.667 -150 62zM328.999 126.999c12 7.33301 22.667 17.333 32 30l-1 216c-14.667 4 -27 6 -37 6c-36 0 -64.833 -13.667 -86.5 -41s-32.5 -63 -32.5 -107c0 -36.667 7 -65 21 -85s34 -30 60 -30c17.333 0 32 3.66699 44 11zM363.999 720.999l134 -123v-8
l-104 -39l-86 75l-86 -74l-104 39v7l134 123h112zM558.999 885.999c22 -20 33 -47.335 33 -82.002c0 -35.333 -12 -63.666 -36 -84.999s-59.667 -34.666 -107 -39.999l-18 83c24 4.66699 40.667 10.167 50 16.5s14 14.5 14 24.5c0 19.333 -15.667 29 -47 29
c-14.667 0 -28.667 -2.33301 -42 -7l-17 80c23.333 7.33301 47.333 11 72 11c43.333 0 76 -10 98 -30z" />
    <glyph glyph-name="uni1EAA" unicode="&#x1eaa;" horiz-adv-x="698" 
d="M462 155h-233l-45 -155h-174l229 690h214l229 -690h-175zM426 280l-46.001 157c-1.33301 4.66699 -5.66602 19 -12.999 43l-17 61h-8c-4.66699 -18.667 -10.167 -38.667 -16.5 -60s-10.833 -36 -13.5 -44l-46 -157h160zM151.999 784v8l141 114h106l139 -115v-8l-99 -43
l-93 65l-95 -65zM160.999 966c10 35.333 25.499 62.834 46.499 82.501s47.5 29.5 79.5 29.5c14 0 26.5 -2 37.5 -6s23.167 -9.66699 36.5 -17c7.33301 -4 14.5 -7.5 21.5 -10.5s13.5 -4.5 19.5 -4.5c9.33301 0 17.666 3.33301 24.999 10s13 15.667 17 27l87 -22
c-10 -34.667 -25.333 -61.834 -46 -81.501s-46.667 -29.5 -78 -29.5c-11.333 0 -21.666 1.66699 -30.999 5s-20 8.33301 -32 15c-20 11.333 -36.667 17 -50 17c-21.333 0 -37.666 -13 -48.999 -39z" />
    <glyph glyph-name="uni1EAB" unicode="&#x1eab;" horiz-adv-x="587" 
d="M88 52c-36 41.333 -54.001 99.332 -54.001 173.999c0 52.667 12.5 99.834 37.5 141.501s59.667 74.167 104 97.5s94.5 35 150.5 35c40.667 0 76.334 -3.66699 107.001 -11s62 -18.333 94 -33v-334l4 -122h-138l-17 58h-4c-35.333 -45.333 -80 -68 -134 -68
c-64 0 -114 20.667 -150 62zM328.999 126.999c12 7.33301 22.667 17.333 32 30l-1 216c-14.667 4 -27 6 -37 6c-36 0 -64.833 -13.667 -86.5 -41s-32.5 -63 -32.5 -107c0 -36.667 7 -65 21 -85s34 -30 60 -30c17.333 0 32 3.66699 44 11zM363.999 720.999l134 -123v-8
l-104 -39l-86 75l-86 -74l-104 39v7l134 123h112zM123.999 790.999c19.333 74.667 59.334 111.999 120.001 111.999c14 0 26 -1.83301 36 -5.5s23 -9.5 39 -17.5c7.33301 -4 14.333 -7.5 21 -10.5s13 -4.5 19 -4.5c9.33301 0 17.833 3.33301 25.5 10s13.5 15.667 17.5 27
l81 -32c-20.667 -74 -60.334 -111 -119.001 -111c-14 0 -25.833 1.83301 -35.5 5.5s-20.167 8.83398 -31.5 15.501c-11.333 6 -19.833 10.167 -25.5 12.5s-12.5 3.5 -20.5 3.5c-22 0 -38 -13 -48 -39z" />
    <glyph glyph-name="uni1EAC" unicode="&#x1eac;" horiz-adv-x="700" 
d="M462 155h-233l-45 -155h-174l229 690h214l229 -690h-175zM426 280l-46.001 157c-1.33301 4.66699 -5.66602 19 -12.999 43l-17 61h-8c-4.66699 -18.667 -10.167 -38.667 -16.5 -60s-10.833 -36 -13.5 -44l-46 -157h160zM150.999 784v8l141 114h106l139 -115v-8l-99 -43
l-93 65l-95 -65zM277.999 -196c-17.333 16 -26 37.3311 -26 63.998s8.66699 48.334 26 65.001s40.333 25 69 25s51.834 -8.16699 69.501 -24.5s26.5 -38.166 26.5 -65.499c0 -26.667 -8.83301 -48 -26.5 -64s-40.834 -24 -69.501 -24s-51.667 8 -69 24z" />
    <glyph glyph-name="uni1EAD" unicode="&#x1ead;" horiz-adv-x="587" 
d="M353 721l134 -123v-8l-104 -39l-86 75l-86 -74l-104 39v7l134 123h112zM88 52c-36 41.333 -54.001 99.332 -54.001 173.999c0 52.667 12.5 99.834 37.5 141.501s59.667 74.167 104 97.5s94.5 35 150.5 35c40.667 0 76.334 -3.66699 107.001 -11s62 -18.333 94 -33v-334
l4 -122h-138l-17 58h-4c-35.333 -45.333 -80 -68 -134 -68c-64 0 -114 20.667 -150 62zM328.999 126.999c12 7.33301 22.667 17.333 32 30l-1 216c-14.667 4 -27 6 -37 6c-36 0 -64.833 -13.667 -86.5 -41s-32.5 -63 -32.5 -107c0 -36.667 7 -65 21 -85s34 -30 60 -30
c17.333 0 32 3.66699 44 11zM232.999 -191.501c-16 15 -24 34.833 -24 59.5c0 25.333 8 45.666 24 60.999s37.333 23 64 23s48.167 -7.66699 64.5 -23s24.5 -35.666 24.5 -60.999c0 -24.667 -8.16699 -44.5 -24.5 -59.5s-37.833 -22.5 -64.5 -22.5s-48 7.5 -64 22.5z" />
    <glyph glyph-name="uni1EAE" unicode="&#x1eae;" horiz-adv-x="700" 
d="M462 155h-233l-45 -155h-174l229 690h214l229 -690h-175zM426 280l-46.001 157c-1.33301 4.66699 -5.66602 19 -12.999 43l-17 61h-8c-4.66699 -18.667 -10.167 -38.667 -16.5 -60s-10.833 -36 -13.5 -44l-46 -157h160zM322.999 898l-53 72l196 152l59 -86l2 -10z
M217.999 781c-30.667 30.667 -46.665 71 -47.998 121h108c2.66699 -20.667 9.83398 -37 21.501 -49s27.167 -18 46.5 -18c18.667 0 34 6 46 18s19.333 28.333 22 49h107c-0.666992 -49.333 -16.334 -89.5 -47.001 -120.5s-73.334 -46.5 -128.001 -46.5
s-97.334 15.333 -128.001 46z" />
    <glyph glyph-name="uni1EAF" unicode="&#x1eaf;" horiz-adv-x="587" 
d="M88 52c-36 41.333 -54.001 99.332 -54.001 173.999c0 52.667 12.5 99.834 37.5 141.501s59.667 74.167 104 97.5s94.5 35 150.5 35c40.667 0 76.334 -3.66699 107.001 -11s62 -18.333 94 -33v-334l4 -122h-138l-17 58h-4c-35.333 -45.333 -80 -68 -134 -68
c-64 0 -114 20.667 -150 62zM328.999 126.999c12 7.33301 22.667 17.333 32 30l-1 216c-14.667 4 -27 6 -37 6c-36 0 -64.833 -13.667 -86.5 -41s-32.5 -63 -32.5 -107c0 -36.667 7 -65 21 -85s34 -30 60 -30c17.333 0 32 3.66699 44 11zM282.999 707.999l-53 72l196 152
l59 -86l2 -10zM177.999 590.999c-30.667 30.667 -46.665 71 -47.998 121h108c2.66699 -20.667 9.83398 -37 21.501 -49s27.167 -18 46.5 -18c18.667 0 34 6 46 18s19.333 28.333 22 49h107c-0.666992 -49.333 -16.334 -89.5 -47.001 -120.5s-73.334 -46.5 -128.001 -46.5
s-97.334 15.333 -128.001 46z" />
    <glyph glyph-name="uni1EB0" unicode="&#x1eb0;" horiz-adv-x="700" 
d="M462 155h-233l-45 -155h-174l229 690h214l229 -690h-175zM426 280l-46.001 157c-1.33301 4.66699 -5.66602 19 -12.999 43l-17 61h-8c-4.66699 -18.667 -10.167 -38.667 -16.5 -60s-10.833 -36 -13.5 -44l-46 -157h160zM163.999 1036l59 86l196 -152l-53 -72l-204 128z
M214.999 781.5c-30.667 31 -46.332 71.167 -46.999 120.5h107c2.66699 -20.667 10 -37 22 -49s27.333 -18 46 -18c19.333 0 34.833 6 46.5 18s18.834 28.333 21.501 49h108c-1.33301 -50 -17.333 -90.333 -48 -121s-73.334 -46 -128.001 -46s-97.334 15.5 -128.001 46.5z
" />
    <glyph glyph-name="uni1EB1" unicode="&#x1eb1;" horiz-adv-x="587" 
d="M88 52c-36 41.333 -54.001 99.332 -54.001 173.999c0 52.667 12.5 99.834 37.5 141.501s59.667 74.167 104 97.5s94.5 35 150.5 35c40.667 0 76.334 -3.66699 107.001 -11s62 -18.333 94 -33v-334l4 -122h-138l-17 58h-4c-35.333 -45.333 -80 -68 -134 -68
c-64 0 -114 20.667 -150 62zM328.999 126.999c12 7.33301 22.667 17.333 32 30l-1 216c-14.667 4 -27 6 -37 6c-36 0 -64.833 -13.667 -86.5 -41s-32.5 -63 -32.5 -107c0 -36.667 7 -65 21 -85s34 -30 60 -30c17.333 0 32 3.66699 44 11zM119.999 845.999l59 86l196 -152
l-53 -72l-204 128zM170.999 591.499c-30.667 31 -46.332 71.167 -46.999 120.5h107c2.66699 -20.667 10 -37 22 -49s27.333 -18 46 -18c19.333 0 34.833 6 46.5 18s18.834 28.333 21.501 49h108c-1.33301 -50 -17.333 -90.333 -48 -121s-73.334 -46 -128.001 -46
s-97.334 15.5 -128.001 46.5z" />
    <glyph glyph-name="uni1EB2" unicode="&#x1eb2;" horiz-adv-x="700" 
d="M462 155h-233l-45 -155h-174l229 690h214l229 -690h-175zM426 280l-46.001 157c-1.33301 4.66699 -5.66602 19 -12.999 43l-17 61h-8c-4.66699 -18.667 -10.167 -38.667 -16.5 -60s-10.833 -36 -13.5 -44l-46 -157h160zM217.999 783
c-30.667 30.667 -46.665 71 -47.998 121h108c2.66699 -20.667 9.83398 -37 21.501 -49s27.167 -18 46.5 -18c18.667 0 34 6 46 18s19.333 28.333 22 49h107c-0.666992 -49.333 -16.334 -89.5 -47.001 -120.5s-73.334 -46.5 -128.001 -46.5s-97.334 15.333 -128.001 46z
M417.001 1112c22 -20 33 -47.335 33 -82.002c0 -35.333 -12 -63.666 -36 -84.999s-59.667 -34.666 -107 -39.999l-18 83c24 4.66699 40.667 10.167 50 16.5s14 14.5 14 24.5c0 19.333 -15.667 29 -47 29c-14.667 0 -28.667 -2.33301 -42 -7l-17 80
c23.333 7.33301 47.333 11 72 11c43.333 0 76 -10 98 -30z" />
    <glyph glyph-name="uni1EB3" unicode="&#x1eb3;" horiz-adv-x="587" 
d="M88 52c-36 41.333 -54.001 99.332 -54.001 173.999c0 52.667 12.5 99.834 37.5 141.501s59.667 74.167 104 97.5s94.5 35 150.5 35c40.667 0 76.334 -3.66699 107.001 -11s62 -18.333 94 -33v-334l4 -122h-138l-17 58h-4c-35.333 -45.333 -80 -68 -134 -68
c-64 0 -114 20.667 -150 62zM328.999 126.999c12 7.33301 22.667 17.333 32 30l-1 216c-14.667 4 -27 6 -37 6c-36 0 -64.833 -13.667 -86.5 -41s-32.5 -63 -32.5 -107c0 -36.667 7 -65 21 -85s34 -30 60 -30c17.333 0 32 3.66699 44 11zM182.999 590.999
c-30.667 30.667 -46.665 71 -47.998 121h108c2.66699 -20.667 9.83398 -37 21.501 -49s27.167 -18 46.5 -18c18.667 0 34 6 46 18s19.333 28.333 22 49h107c-0.666992 -49.333 -16.334 -89.5 -47.001 -120.5s-73.334 -46.5 -128.001 -46.5s-97.334 15.333 -128.001 46z
M382.001 919.999c22 -20 33 -47.335 33 -82.002c0 -35.333 -12 -63.666 -36 -84.999s-59.667 -34.666 -107 -39.999l-18 83c24 4.66699 40.667 10.167 50 16.5s14 14.5 14 24.5c0 19.333 -15.667 29 -47 29c-14.667 0 -28.667 -2.33301 -42 -7l-17 80
c23.333 7.33301 47.333 11 72 11c43.333 0 76 -10 98 -30z" />
    </font>
</defs>
</svg>
