<?xml version="1.0" standalone="no"?>
<!DOCTYPE svg PUBLIC "-//W3C//DTD SVG 1.1//EN" "http://www.w3.org/Graphics/SVG/1.1/DTD/svg11.dtd" >
<svg>
<metadata>
Created by FontForge 20090914 at Thu Jun  7 16:29:02 2018
 By www-data
Copyright (c) 2017 by Locomotype. All rights reserved. Named by Sunardi Purwosuwito.
</metadata>
<defs>
<font id="EufoniemOne" horiz-adv-x="392" >
  <font-face 
    font-family="Eufoniem One"
    font-weight="400"
    font-stretch="normal"
    units-per-em="1000"
    panose-1="0 0 0 0 0 0 0 0 0 0"
    ascent="750"
    descent="-250"
    x-height="329.002"
    cap-height="631.998"
    bbox="-189.431 -360 724.343 808.912"
    underline-thickness="50"
    underline-position="-50"
    unicode-range="U+000D-U+FB02"
  />
<missing-glyph horiz-adv-x="200" 
 />
    <glyph glyph-name=".notdef" horiz-adv-x="200" 
 />
    <glyph glyph-name="NULL" horiz-adv-x="0" 
 />
    <glyph glyph-name="NULL" horiz-adv-x="0" 
 />
    <glyph glyph-name="nonmarkingreturn" unicode="&#xd;" horiz-adv-x="200" 
 />
    <glyph glyph-name="space" unicode=" " horiz-adv-x="200" 
 />
    <glyph glyph-name="exclam" unicode="!" horiz-adv-x="190" 
d="M100 649c12 0 20.668 -2.00098 26.001 -6.00098s9 -9.16699 11 -15.5s2.83301 -13.833 2.5 -22.5s-0.5 -17.667 -0.5 -27c0 -62 -1.16699 -123.667 -3.5 -185s-3.5 -123.333 -3.5 -186c0 -10 0.5 -20 1.5 -30s0.833008 -19 -0.5 -27s-5 -14.5 -11 -19.5
s-16 -7.5 -30 -7.5c-4 0 -8.5 0.333008 -13.5 1s-9.5 1.83398 -13.5 3.50098s-7.5 4.16699 -10.5 7.5s-4.5 7.66602 -4.5 12.999c0 76.667 2.16699 152.834 6.5 228.501s8.16602 151.834 11.499 228.501c0 5.33301 0.166992 10.666 0.5 15.999s1.33301 10 3 14
s4.66699 7.33301 9 10s10.833 4 19.5 4zM128.001 30.999c0 -6 0.499023 -11.833 1.49902 -17.5s1.5 -11.167 1.5 -16.5c0 -9.33301 -4.33301 -15.333 -13 -18s-16.667 -4 -24 -4c-8 0 -16 1.66699 -24 5s-12 10 -12 20c0 14.667 2.16699 28.167 6.5 40.5
s15.5 18.5 33.5 18.5c10.667 0 18.334 -2 23.001 -6s7 -11.333 7 -22z" />
    <glyph glyph-name="quotedbl" unicode="&#x22;" horiz-adv-x="282" 
d="M68 685c-2 5.33301 -0.833984 9.33594 3.49902 12.0029s9.83301 4.33398 16.5 5.00098s13.334 0.166992 20.001 -1.5s11 -3.83398 13 -6.50098c6 -7.33301 9.5 -16 10.5 -26s0.166992 -20.333 -2.5 -31s-6.5 -20.834 -11.5 -30.501s-10.5 -17.5 -16.5 -23.5
c-11.333 -12.667 -26 -18.334 -44 -17.001c-2 0 -5 0.5 -9 1.5s-7.5 2.5 -10.5 4.5s-5.16699 4.33301 -6.5 7s-0.333008 5.66699 3 9c12 12.667 22.333 27.167 31 43.5s9.66699 34.166 3 53.499zM166.999 685.003c-2 5.33301 -0.833984 9.33594 3.49902 12.0029
s9.83301 4.33398 16.5 5.00098s13.334 0.166992 20.001 -1.5s11 -3.83398 13 -6.50098c6 -7.33301 9.5 -16 10.5 -26s0.166992 -20.333 -2.5 -31s-6.5 -20.834 -11.5 -30.501s-10.5 -17.5 -16.5 -23.5c-11.333 -12.667 -26 -18.334 -44 -17.001c-2 0 -5 0.5 -9 1.5
s-7.5 2.5 -10.5 4.5s-5.16699 4.33301 -6.5 7s-0.333008 5.66699 3 9c12 12.667 22.333 27.167 31 43.5s9.66699 34.166 3 53.499z" />
    <glyph glyph-name="numbersign" unicode="#" horiz-adv-x="456" 
d="M343 380c4 0 10.502 0.338867 19.502 1.00586s18.167 0.833984 27.5 0.500977s17.666 -1.83301 24.999 -4.5s11 -7.33398 11 -14.001c0 -5.33301 -2.5 -9.5 -7.5 -12.5s-10.833 -5.16699 -17.5 -6.5s-13.334 -2 -20.001 -2h-15c-4 0 -9.66699 0.333008 -17 1
s-11.666 -2 -12.999 -8c-5.33301 -23.333 -9.33301 -47.5 -12 -72.5s-5.66699 -49.5 -9 -73.5c4 0 11 0.333008 21 1s20.167 0.666992 30.5 0s19.666 -2.16699 27.999 -4.5s12.5 -6.83301 12.5 -13.5c0 -4.66699 -1.66699 -8.33398 -5 -11.001
s-7.33301 -4.83398 -12 -6.50098s-9.5 -2.66699 -14.5 -3s-9.16699 -0.5 -12.5 -0.5c-2 0 -6 0.166992 -12 0.5s-12 0.5 -18 0.5s-11.5 -0.166992 -16.5 -0.5s-7.5 -1.5 -7.5 -3.5c0 -9.33301 -0.666992 -23 -2 -41s-4 -36 -8 -54s-9.66699 -33.667 -17 -47
s-17.333 -20 -30 -20c-10.667 0 -18.5 3.16699 -23.5 9.5s-7.5 14.5 -7.5 24.5c0 20 2.5 42.167 7.5 66.5s9.16699 46.166 12.5 65.499h-65c-0.666992 -3.33301 -1.33398 -13 -2.00098 -29s-2 -33 -4 -51s-4.66699 -34.667 -8 -50s-7.66602 -24 -12.999 -26
c-8.66699 -3.33301 -17 -5 -25 -5c-11.333 0 -20.833 2.16699 -28.5 6.5s-11.5 13.166 -11.5 26.499c0 20.667 1.5 41.5 4.5 62.5s6.16699 41.833 9.5 62.5c-3.33301 0 -8.66602 -0.5 -15.999 -1.5s-14.833 -1.33301 -22.5 -1s-14.5 1.5 -20.5 3.5s-9 5.66699 -9 11
c0 4 3.16699 7.16699 9.5 9.5s13.833 4.16602 22.5 5.49902s16.834 2.5 24.501 3.5s13.167 1.5 16.5 1.5c4 26 8.33301 51.833 13 77.5l14 77.5c-10 0 -20.5 -0.333008 -31.5 -1s-20.833 2.33301 -29.5 9l-5 9c0 4.66699 3.16699 8.16699 9.5 10.5s13.5 3.83301 21.5 4.5
s16 1 24 1h17c3.33301 11.333 5.83301 24.833 7.5 40.5s4 30.667 7 45s7.5 26.333 13.5 36s14.667 14.5 26 14.5c8.66699 0 16.667 -1.83301 24 -5.5s11 -10.834 11 -21.501c0 -16 -1.5 -33.333 -4.5 -52s-6.16699 -36 -9.5 -52c9.33301 0.666992 19 1 29 1
s19.667 0.333008 29 1c3.33301 0 6.66602 6.83301 9.99902 20.5s6.66602 29 9.99902 46l9.5 50.5c3 16.667 5.83301 28 8.5 34c2.66699 6.66699 7 11.167 13 13.5s12.167 2.83301 18.5 1.5s12 -4.33301 17 -9s7.5 -10.667 7.5 -18c0 -21.333 -2.5 -44 -7.5 -68
s-9.16699 -46.333 -12.5 -67zM246.002 188.006l11.9971 75.5c4 25 8.33301 50.167 13 75.5c-9.33301 -0.666992 -20.166 -1.5 -32.499 -2.5s-23.166 -1.5 -32.499 -1.5l-6 -26c-1.33301 -6 -2.66602 -13.333 -3.99902 -22s-3 -20.5 -5 -35.5s-5.33301 -36.833 -10 -65.5z
" />
    <glyph glyph-name="dollar" unicode="$" horiz-adv-x="448" 
d="M267 575c-0.666992 -42.667 -0.335938 -85.334 0.99707 -128.001s1.33301 -85.334 0 -128.001c6.66699 -4 17.334 -9 32.001 -15s29.334 -14.5 44.001 -25.5s27.334 -25.167 38.001 -42.5s15.667 -38.666 15 -63.999c-0.666992 -18 -4.66699 -35.667 -12 -53
s-17 -33.166 -29 -47.499s-25.667 -26.5 -41 -36.5s-31 -17 -47 -21c0 -8 0.333008 -16 1 -24s0.5 -15.5 -0.5 -22.5s-4.16699 -12.833 -9.5 -17.5s-14 -7 -26 -7c-10.667 0 -19 2 -25 6s-8.66699 11.667 -8 23l1 42c-10.667 0.666992 -24.667 3.16699 -42 7.5
s-34 10.5 -50 18.5s-29.833 17.5 -41.5 28.5s-17.167 23.5 -16.5 37.5c0 4 2 8 6 12s8.66699 7.5 14 10.5s10.666 4.83301 15.999 5.5s9.33301 0 12 -2c-0.666992 -8 2 -16.667 8 -26s13.833 -18 23.5 -26s20.667 -14.667 33 -20s25.166 -8.33301 38.499 -9
c1.33301 38.667 2 77 2 115s0.666992 76.333 2 115c-7.33301 3.33301 -19.5 7.83301 -36.5 13.5s-34.167 13.667 -51.5 24s-32.666 23.833 -45.999 40.5s-19.333 38 -18 64c0.666992 18 5.83398 36.5 15.501 55.5s21.834 36.5 36.501 52.5s31 30 49 42s35.667 20 53 24
c0 6.66699 -0.166992 14.334 -0.5 23.001s0 16.834 1 24.501s3.5 14 7.5 19s11 7.5 21 7.5c9.33301 0 16.833 -1.33301 22.5 -4s8.16699 -9.33398 7.5 -20.001c0 -2 -0.166992 -5.16699 -0.5 -9.5s-0.333008 -8.83301 0 -13.5s0.833008 -8.83398 1.5 -12.501s2 -5.5 4 -5.5
c22 0 41 -5.5 57 -16.5s23.667 -28.833 23 -53.5c0 -8.66699 -1 -17.167 -3 -25.5s-4.33301 -16.833 -7 -25.5c-3.33301 -2 -7 -3.83301 -11 -5.5s-8 -2.5 -12 -2.5s-8.83301 0.666992 -14.5 2s-8.5 4.66602 -8.5 9.99902c0 6.66699 0.666992 14.834 2 24.501s1.5 19 0.5 28
s-3.83301 16.833 -8.5 23.5s-12.334 10 -23.001 10zM123.998 430c-0.666992 -12.667 1.33203 -24 5.99902 -34s10.834 -18.667 18.501 -26s16.667 -13.833 27 -19.5s20.833 -10.5 31.5 -14.5l1 218c-20.667 -13.333 -39.5 -31 -56.5 -53s-26.167 -45.667 -27.5 -71z
M268.997 59c10.667 4.66699 19.501 11.3369 26.501 20.0039s12.5 18.167 16.5 28.5s7 21.166 9 32.499s3 21.666 3 30.999c1.33301 19.333 -3.5 36.666 -14.5 51.999s-24.5 27.666 -40.5 36.999c0 -32 0.166992 -65.5 0.5 -100.5s0.166016 -68.5 -0.500977 -100.5z" />
    <glyph glyph-name="percent" unicode="%" horiz-adv-x="586" 
d="M350 394l-57.999 -162.997c-19.333 -54 -37 -109 -53 -165l-12 -40.5c-4 -13.667 -7 -27.5 -9 -41.5c-2 -10.667 -6.33301 -17.834 -13 -21.501s-15 -5.5 -25 -5.5c-11.333 0 -21 2.33301 -29 7s-12 13.667 -12 27c0 9.33301 2.5 18.166 7.5 26.499
s8.83301 17.166 11.5 26.499c15.333 54 32.5 107.167 51.5 159.5l57.5 157.5l98 274c0 8.66699 3.16699 16.167 9.5 22.5s15.166 9.5 26.499 9.5c22 0 33 -8.33301 33 -25c0 -8.66699 -2.16699 -17.667 -6.5 -27s-7.5 -17.333 -9.5 -24l-34 -98.5zM244.001 461.003
c-11.333 -23.333 -26.502 -43.8301 -45.502 -61.4971s-41.167 -26.5 -66.5 -26.5c-15.333 0 -28.166 2.16699 -38.499 6.5s-18.833 10.166 -25.5 17.499s-11.334 15.666 -14.001 24.999s-4 18.666 -4 27.999c0 18.667 3.33301 38.667 10 60s16.334 41 29.001 59s28 33 46 45
s38.667 18 62 18c14 0 25.333 -3.5 34 -10.5s15.5 -15.333 20.5 -25s8.5 -19.834 10.5 -30.501s3 -19.667 3 -27c0 -13.333 -2.16699 -26.666 -6.5 -39.999s-9.16602 -26 -14.499 -38zM509.999 216.006c17.333 -20 26.001 -44.332 26.001 -72.999c0 -17.333 -3 -34 -9 -50
s-14.667 -30.167 -26 -42.5s-25 -22.166 -41 -29.499s-34 -11 -54 -11c-22 0 -40.333 7.16699 -55 21.5s-22 37.5 -22 69.5c0 18.667 2.5 37.667 7.5 57s12.167 36.666 21.5 51.999s20.5 28 33.5 38s27.167 15 42.5 15c4.66699 0 10.667 -0.833008 18 -2.5
s11 -4.83398 11 -9.50098v-5c0 -1.33301 1.83301 -3 5.5 -5s8 -4.16699 13 -6.5s10.167 -5 15.5 -8s9.66602 -6.5 12.999 -10.5zM161 422.007c11.333 14.667 21.165 32.833 29.498 54.5s12.5 42.834 12.5 63.501v6.5c0 3.66699 -0.333008 7.66699 -1 12s-2 8.33301 -4 12
s-4.66699 5.5 -8 5.5c-6.66699 1.33301 -11.667 3.66602 -15 6.99902s-5.66602 5 -6.99902 5c-5.33301 0 -11.166 -5 -17.499 -15s-12.5 -22 -18.5 -36s-11 -28.833 -15 -44.5s-6 -29.167 -6 -40.5c0 -8 1.33301 -15.833 4 -23.5s6.16699 -13.667 10.5 -18s9.5 -6 15.5 -5
s12.667 6.5 20 16.5zM411.999 44.0059c8.66699 -2 16.3359 0.668945 23.0029 8.00195s12.5 16.5 17.5 27.5s8.83301 22.5 11.5 34.5s4 21.667 4 29c0 4 -0.333008 9 -1 15s-1.83398 12 -3.50098 18s-3.83398 11 -6.50098 15s-6 6 -10 6c-2 0 -4 -0.333008 -6 -1
s-4.33301 -1 -7 -1c-9.33301 0 -14 4 -14 12c-8 -14.667 -14.333 -30.834 -19 -48.501s-7 -35.167 -7 -52.5v-18c0 -6.66699 0.5 -13.167 1.5 -19.5s2.66699 -11.833 5 -16.5s6.16602 -7.33398 11.499 -8.00098z" />
    <glyph glyph-name="ampersand" unicode="&#x26;" horiz-adv-x="568" 
d="M507 271c8.66699 -5.33301 12.1641 -12.498 10.4971 -21.498s-5.66699 -18.167 -12 -27.5s-13.5 -18 -21.5 -26l-18 -18l-39 -38l-36.5 -35c-12.333 -11.333 -25.5 -22.5 -39.5 -33.5s-30.333 -22.167 -49 -33.5c1.33301 -18.667 1.5 -37.834 0.5 -57.501
s1.5 -38.5 7.5 -56.5c-1.33301 -6 -5 -10.5 -11 -13.5s-12.833 -4.66699 -20.5 -5s-15.167 0.333984 -22.5 2.00098s-13 4.16699 -17 7.5c-3.33301 3.33301 -5.66602 8.33301 -6.99902 15s-2.16602 14 -2.49902 22s-0.333008 16.5 0 25.5s0.5 17.833 0.5 26.5
c-20 -6 -41.167 -9.16699 -63.5 -9.5s-42.666 3.33398 -60.999 11.001s-32.833 19.667 -43.5 36s-14 37.833 -10 64.5c7.33301 45.333 24.166 87.333 50.499 126s56.166 73 89.499 103c-12 1.33301 -23.833 4.16602 -35.5 8.49902s-21.5 10.166 -29.5 17.499
s-13.5 16.166 -16.5 26.499s-2.16699 22.5 2.5 36.5c7.33301 23.333 19.833 44.833 37.5 64.5s36.167 36.834 55.5 51.501l15 11c0.666992 4 1 9.66699 1 17s0.666992 22.666 2 45.999c0 4 0.166992 9.16699 0.5 15.5s1 12.666 2 18.999s2.5 12 4.5 17
s5.33301 8.16699 10 9.5c2 0.666992 5.16699 1.33398 9.5 2.00098s8.5 0.833984 12.5 0.500977s7.66699 -1.33301 11 -3s5 -4.5 5 -8.5c0.666992 -13.333 0.5 -26.833 -0.5 -40.5s-1.5 -27.5 -1.5 -41.5c14 7.33301 28.5 13.333 43.5 18s30.5 6 46.5 4
c14 -1.33301 24.333 -6.16602 31 -14.499s7.33398 -19.5 2.00098 -33.5c-4.66699 -12 -10.5 -22 -17.5 -30s-17.5 -11 -31.5 -9c-8 0.666992 -13.167 2.66699 -15.5 6s-3.16602 7.16602 -2.49902 11.499s2 9.16602 4 14.499s3.33301 10.666 4 15.999
c-17.333 -8 -33.333 -17 -48 -27c-23.333 -15.333 -45.666 -33.333 -66.999 -54s-36.333 -45 -45 -73c-6 -25.333 3.66699 -39.666 29 -42.999c11.333 -1.33301 21 0 29 4s16.667 8.66699 26 14c12 7.33301 25.167 13.833 39.5 19.5s28.5 8.5 42.5 8.5
c5.33301 0 10.833 -0.666992 16.5 -2s10.5 -3.66602 14.5 -6.99902c3.33301 -2.66699 5 -5.33398 5 -8.00098s-0.833008 -5.16699 -2.5 -7.5s-4 -4.5 -7 -6.5s-5.5 -3.33301 -7.5 -4c-21.333 -9.33301 -45.833 -22.333 -73.5 -39s-53.167 -38 -76.5 -64
c-20 -22.667 -37.833 -47.334 -53.5 -74.001s-26.834 -55 -33.501 -85c-2.66699 -11.333 -3.66699 -22.833 -3 -34.5s3.16699 -22 7.5 -31s10.833 -15.5 19.5 -19.5s20 -3.66699 34 1c30 10 58.167 24.333 84.5 43s50.333 38.834 72 60.501s41.167 43 58.5 64l45 53.5
c-9.33301 4.66699 -11.5 9.5 -6.5 14.5s11.167 7.83301 18.5 8.5c7.33301 1.33301 15.5 1.5 24.5 0.5s16.833 -3.83301 23.5 -8.5z" />
    <glyph glyph-name="quotesingle" unicode="'" horiz-adv-x="183" 
d="M68 685c-2 5.33301 -0.833984 9.33594 3.49902 12.0029s9.83301 4.33398 16.5 5.00098s13.334 0.166992 20.001 -1.5s11 -3.83398 13 -6.50098c6 -7.33301 9.5 -16 10.5 -26s0.166992 -20.333 -2.5 -31s-6.5 -20.834 -11.5 -30.501s-10.5 -17.5 -16.5 -23.5
c-11.333 -12.667 -26 -18.334 -44 -17.001c-2 0 -5 0.5 -9 1.5s-7.5 2.5 -10.5 4.5s-5.16699 4.33301 -6.5 7s-0.333008 5.66699 3 9c12 12.667 22.333 27.167 31 43.5s9.66699 34.166 3 53.499z" />
    <glyph glyph-name="parenleft" unicode="(" horiz-adv-x="287" 
d="M233 -87c2.66699 -8 3.49805 -14.499 2.49805 -19.499s-6.5 -9.16699 -16.5 -12.5c-7.33301 -2.66699 -15.166 -3.83398 -23.499 -3.50098s-15.833 2.5 -22.5 6.5c-16 8 -29.333 19.5 -40 34.5s-19.667 30.167 -27 45.5c-16 34.667 -27.833 71.167 -35.5 109.5
s-13.167 76.5 -16.5 114.5c-3.33301 41.333 -4.5 82.666 -3.5 123.999s4.83301 82.333 11.5 123c2.66699 16 5.66699 33 9 51s7.5 35.667 12.5 53s11.333 34 19 50s16.834 30.333 27.501 43c6 7.33301 12.667 14.166 20 20.499s15.666 10.5 24.999 12.5
c6 1.33301 13 1.33301 21 0s13.667 -4.66602 17 -9.99902c2.66699 -4.66699 2 -9 -2 -13l-2 -2c-0.666992 -0.666992 -1.33398 -1.16699 -2.00098 -1.5s-0.666992 -0.166016 0 0.500977c-16.667 -22 -30.667 -48 -42 -78s-20.166 -62.333 -26.499 -97
s-10.5 -70.5 -12.5 -107.5s-2.16699 -73.5 -0.5 -109.5s5 -70.833 10 -104.5s11.167 -64.167 18.5 -91.5c4 -14 8.33301 -28 13 -42s10.334 -27.667 17.001 -41l12 -21c4 -6.66699 8.66699 -13 14 -19c3.33301 -3.33301 7.5 -5.33301 12.5 -6s8.5 -3.66699 10.5 -9z" />
    <glyph glyph-name="parenright" unicode=")" horiz-adv-x="293" 
d="M139 661c36 -49.333 61.6689 -104.001 77.002 -164.001s24 -120 26 -180c2.66699 -61.333 -1.33301 -124 -12 -188s-30 -123.667 -58 -179c-4.66699 -9.33301 -11 -18.833 -19 -28.5s-17 -17.667 -27 -24s-20.667 -10.333 -32 -12s-23 1.16602 -35 8.49902
c-6.66699 3.33301 -9.5 7.5 -8.5 12.5s4.5 9.16699 10.5 12.5s10.833 6.5 14.5 9.5s7.5 7.5 11.5 13.5c8 12.667 14.833 26 20.5 40s10.834 27.667 15.501 41c16 45.333 27.833 94.5 35.5 147.5s10.167 106.667 7.5 161s-10.834 107.833 -24.501 160.5
s-33.834 101.667 -60.501 147l-8.5 12.5c-3 4.33301 -1.5 8.83301 4.5 13.5c4 2.66699 8.83301 4.83398 14.5 6.50098s11.5 2.33398 17.5 2.00098s11.667 -1.5 17 -3.5s9.66602 -5 12.999 -9z" />
    <glyph glyph-name="asterisk" unicode="*" horiz-adv-x="367" 
d="M294 531c6 -4 11.167 -8.33008 15.5 -12.9971s6.66602 -9.16699 6.99902 -13.5s-1.83398 -7.83301 -6.50098 -10.5s-12.667 -4 -24 -4c-7.33301 0 -14.333 1.16699 -21 3.5s-13 5.5 -19 9.5s-12 8.33301 -18 13s-12 8.66699 -18 12
c0.666992 -9.33301 1.5 -18.5 2.5 -27.5s1.5 -18.167 1.5 -27.5c0.666992 -7.33301 -2.83301 -12.333 -10.5 -15s-14.5 -4.33398 -20.5 -5.00098c-6 0 -13 1.16699 -21 3.5s-12.667 7.16602 -14 14.499c-2 8.66699 -2.66699 17.667 -2 27s1 18.333 1 27l-29 -19.5
c-10 -7 -20.333 -12.5 -31 -16.5c-6.66699 -3.33301 -13.334 -2.83301 -20.001 1.5s-12 10.166 -16 17.499c-2.66699 4 -0.166992 9 7.5 15s16.834 12.333 27.501 19s21.167 12.667 31.5 18s17.166 9 20.499 11l-58 30c-2 0.666992 -4.66699 1.66699 -8 3
s-6.5 2.83301 -9.5 4.5s-5.5 3.66699 -7.5 6s-2.33301 5.16602 -1 8.49902c3.33301 8 9 12.5 17 13.5s16.833 0.333008 26.5 -2s18.834 -5.5 27.501 -9.5l20 -9c0 3.33301 -0.333008 8.16602 -1 14.499s-1.16699 12.833 -1.5 19.5s-0.166016 12.834 0.500977 18.501
s2 9.83398 4 12.501c3.33301 3.33301 8 5.5 14 6.5s11.667 1.5 17 1.5c2 0 4.66699 -0.333008 8 -1s6.5 -1.83398 9.5 -3.50098s5.33301 -3.66699 7 -6s1.83398 -5.16602 0.500977 -8.49902c0 -10 0.166992 -19.833 0.5 -29.5s0.833008 -19.5 1.5 -29.5
c6 3.33301 13.167 7.83301 21.5 13.5s17 10.5 26 14.5s17.833 6.33301 26.5 7s16.667 -2 24 -8c4 -3.33301 5.16699 -6.83301 3.5 -10.5s-4.66699 -7 -9 -10s-9 -5.83301 -14 -8.5s-8.5 -4.66699 -10.5 -6l-48 -30l34.5 -20.5z" />
    <glyph glyph-name="plus" unicode="+" 
d="M312 229c3.33301 -4.66699 4.66699 -8.83301 4 -12.5s-2.5 -6.66699 -5.5 -9s-6.66699 -4.16602 -11 -5.49902s-8.83301 -2 -13.5 -2c-9.33301 0.666992 -19 1 -29 1h-30c0.666992 -13.333 1.16699 -25.833 1.5 -37.5s0.5 -24.167 0.5 -37.5
c0 -10.667 -2.83301 -19.5 -8.5 -26.5s-14.5 -9.83301 -26.5 -8.5c-15.333 1.33301 -24.5 5.5 -27.5 12.5s-4.16699 17.167 -3.5 30.5c0 12 0.166992 23.333 0.5 34s0.5 21.667 0.5 33c-12.667 0 -24.834 -0.666992 -36.501 -2s-22.167 -1.33301 -31.5 0
c-14 2.66699 -21 8.33398 -21 17.001s5.33301 14 16 16c7.33301 1.33301 14.833 2.33301 22.5 3l22.5 2h13.5c4.33301 0 9.83301 1 16.5 3c0 7.33301 0.166992 16 0.5 26s0.5 18.667 0.5 26c0.666992 5.33301 0.833984 11 0.500977 17s0.833984 11.667 3.50098 17
c1.33301 5.33301 4.16602 8.66602 8.49902 9.99902s8.83301 1.66602 13.5 0.999023c14 -0.666992 22.333 -4.16699 25 -10.5s4.66699 -15.5 6 -27.5c0.666992 -8 1 -16.667 1 -26v-27c0.666992 -5.33301 2.33398 -7.83301 5.00098 -7.5s6.66699 0.5 12 0.5
c17.333 0 31.666 0.5 42.999 1.5s20.333 -2.83301 27 -11.5z" />
    <glyph glyph-name="comma" unicode="," horiz-adv-x="193" 
d="M68 58c-2 5.33301 -0.833984 9.33594 3.49902 12.0029s9.83301 4.33398 16.5 5.00098s13.334 0.166992 20.001 -1.5s11 -3.83398 13 -6.50098c6 -7.33301 9.5 -16 10.5 -26s0.166992 -20.333 -2.5 -31s-6.5 -20.834 -11.5 -30.501s-10.5 -17.5 -16.5 -23.5
c-11.333 -12.667 -26 -18.334 -44 -17.001c-2 0 -5 0.5 -9 1.5s-7.5 2.5 -10.5 4.5s-5.16699 4.33301 -6.5 7s-0.333008 5.66699 3 9c12 12.667 22.333 27.167 31 43.5s9.66699 34.166 3 53.499z" />
    <glyph glyph-name="hyphen" unicode="-" horiz-adv-x="371" 
d="M260 242c8.66699 0 16.834 -1.50098 24.501 -4.50098s11.5 -10.167 11.5 -21.5c0 -4.66699 -4.33301 -8.33398 -13 -11.001s-19.5 -4.66699 -32.5 -6s-27.5 -2 -43.5 -2s-31.167 0.166992 -45.5 0.5s-27 0.833008 -38 1.5s-18.5 1.33398 -22.5 2.00098
c-5.33301 0.666992 -11 2 -17 4s-9 6.33301 -9 13c0 10 3.5 16.333 10.5 19s15.167 4.33398 24.5 5.00098c7.33301 0.666992 16.833 1 28.5 1h38c13.667 0 27.667 -0.166992 42 -0.5s28.166 -0.5 41.499 -0.5z" />
    <glyph glyph-name="period" unicode="." horiz-adv-x="180" 
d="M119 39c0 -6.66699 0.166992 -13.1689 0.5 -19.502s-3.16699 -11.166 -10.5 -14.499c-8 -4.66699 -18.333 -6.33398 -31 -5.00098c-11.333 1.33301 -18.833 4.33301 -22.5 9s-5.5 12.334 -5.5 23.001c0.666992 6.66699 1.33398 14.5 2.00098 23.5s4 15.167 10 18.5
c9.33301 4.66699 20.333 6.33398 33 5.00098c13.333 -2 20.666 -6.33301 21.999 -13s2 -15.667 2 -27z" />
    <glyph glyph-name="slash" unicode="/" horiz-adv-x="398" 
d="M377 626c-2 -6.66699 -4.66699 -13.168 -8 -19.501l-10 -19.5l-86 -183.5l-84 -184.5l-84 -180c-6.66699 -14 -13.667 -25.167 -21 -33.5s-19.666 -11.166 -36.999 -8.49902c-4.66699 0.666992 -10 2.16699 -16 4.5s-9.33301 6.5 -10 12.5c-0.666992 5.33301 1 11 5 17
s7 11.333 9 16l86 181.5l85 181.5l42 89l44 88c5.33301 9.33301 10.666 19.333 15.999 30s13 18 23 22c2 0.666992 5.83301 1.16699 11.5 1.5s11.167 0 16.5 -1s9.83301 -2.5 13.5 -4.5s5.16699 -5 4.5 -9z" />
    <glyph glyph-name="zero" unicode="0" horiz-adv-x="390" 
d="M211 650c16.667 0 29.332 -2.82617 37.999 -8.49316s17 -15.167 25 -28.5c2 -4 5 -6.5 9 -7.5s8.16699 -2.66699 12.5 -5s8.83301 -6.33301 13.5 -12s9 -14.834 13 -27.501c12 -38.667 19.833 -79.334 23.5 -122.001s5.5 -84.334 5.5 -125.001
c0 -18 -0.833008 -39 -2.5 -63s-4.66699 -48.833 -9 -74.5s-10.666 -50.834 -18.999 -75.501s-18.833 -46.5 -31.5 -65.5s-28 -33.833 -46 -44.5s-39.333 -15 -64 -13c-23.333 2 -43 8.16699 -59 18.5s-29 23.666 -39 39.999s-17.833 34.666 -23.5 54.999
s-9.66699 41.333 -12 63s-3.66602 43.167 -3.99902 64.5s-0.5 41.333 -0.5 60c0 18 0.666992 39.667 2 65s4.16602 51.666 8.49902 78.999s10.5 54.5 18.5 81.5s18.333 51.333 31 73s28 39.167 46 52.5s39.333 20 64 20zM188.998 18.0068
c14.667 0 27.165 7.83105 37.498 23.498s19.166 35.834 26.499 60.501s13.166 51.667 17.499 81s7.83301 57.5 10.5 84.5s4.33398 51.167 5.00098 72.5s1 36 1 44c0 9.33301 -0.5 23.333 -1.5 42s-2.66699 38 -5 58s-5.16602 38.5 -8.49902 55.5s-7.33301 29.167 -12 36.5
c-1.33301 2.66699 -5.33301 4.83398 -12 6.50098s-10 4.16699 -10 7.5c-6.66699 16.667 -14.167 24.5 -22.5 23.5s-16.333 -6.16699 -24 -15.5s-14.667 -20.166 -21 -32.499s-10.5 -21.833 -12.5 -28.5c-14 -38 -23.167 -77.667 -27.5 -119s-6.5 -82 -6.5 -122
c0 -7.33301 0.333008 -19.333 1 -36s2 -35.334 4 -56.001s4.66699 -42 8 -64s7.33301 -42 12 -60s10.334 -32.833 17.001 -44.5s14.334 -17.5 23.001 -17.5z" />
    <glyph glyph-name="one" unicode="1" horiz-adv-x="217" 
d="M138 627c14 -2 21.333 -7.33301 22 -16s0.666992 -18.667 0 -30c-2.66699 -42 -5 -82.333 -7 -121s-3.33301 -76.667 -4 -114c-1.33301 -54.667 -0.833008 -109.167 1.5 -163.5s3.16602 -109.166 2.49902 -164.499v-15.5c0 -5 -2.66699 -9.16699 -8 -12.5
c-8.66699 -5.33301 -18.667 -8.16602 -30 -8.49902s-21.666 2.5 -30.999 8.5c-5.33301 3.33301 -8 7.66602 -8 12.999v16c-1.33301 78 -2.83301 156.833 -4.5 236.5s2.16602 160.167 11.499 241.5c-4 -5.33301 -7.66699 -10.5 -11 -15.5s-7 -9.33301 -11 -13
s-8.5 -6.16699 -13.5 -7.5s-11.167 -0.333008 -18.5 3s-11 7.16602 -11 11.499s1.66699 8.83301 5 13.5c0.666992 1.33301 4.5 7.16602 11.5 17.499s14.667 22.333 23 36l25.5 42.5c8.66699 14.667 15.334 27 20.001 37c10 4.66699 21.667 6.33398 35 5.00098z" />
    <glyph glyph-name="two" unicode="2" horiz-adv-x="359" 
d="M323 542c0.666992 -5.33301 1.16113 -10.6738 1.49414 -16.0068s0.5 -10.666 0.5 -15.999c0 -43.333 -8.16699 -84.333 -24.5 -123s-35.666 -77 -57.999 -115l-68.5 -114.5c-23.333 -38.333 -41.666 -78.166 -54.999 -119.499c12 1.33301 24 2.5 36 3.5s24 1.5 36 1.5
c6 0 15.333 -0.333008 28 -1s26.167 -1.66699 40.5 -3s27.833 -3.5 40.5 -6.5s22 -6.5 28 -10.5c0.666992 -5.33301 -0.333008 -10.166 -3 -14.499s-6.16699 -7.83301 -10.5 -10.5s-8.83301 -4.66699 -13.5 -6s-9 -2 -13 -2c-14.667 0 -31.667 0.666992 -51 2
s-39.166 2.33301 -59.499 3s-40.333 0.666992 -60 0s-37.167 -2.66699 -52.5 -6c-7.33301 0 -15 1.5 -23 4.5s-12 9.16699 -12 18.5c0 8.66699 2.33301 18.334 7 29.001s8.33398 18.667 11.001 24c14.667 36.667 33.834 73.167 57.501 109.5l70 111.5
c23 38 42.833 77.333 59.5 118s25 83.334 25 128.001c0 8 -0.333008 16.167 -1 24.5s-2.16699 16.166 -4.5 23.499s-5.5 13.5 -9.5 18.5s-9.33301 8.16699 -16 9.5c-13.333 2 -28.333 -3.66699 -45 -17s-32.167 -29.5 -46.5 -48.5s-26.333 -38.5 -36 -58.5
s-14.5 -36 -14.5 -48c0 -3.33301 0.833008 -6.16602 2.5 -8.49902s2.5 -5.16602 2.5 -8.49902s-2.16699 -5.66602 -6.5 -6.99902s-8.16602 -2 -11.499 -2c-9.33301 0 -17.666 3 -24.999 9s-11 14.333 -11 25c0 22 5.5 44.333 16.5 67s25.667 43.5 44 62.5
s39.166 34.667 62.499 47s47.333 18.833 72 19.5c15.333 0.666992 28.5 -1.83301 39.5 -7.5s20 -13.167 27 -22.5s12.333 -19.833 16 -31.5s6.16699 -23.5 7.5 -35.5z" />
    <glyph glyph-name="three" unicode="3" horiz-adv-x="367" 
d="M198 408c26.667 -0.666992 48.998 -7.00391 66.998 -19.0039s32.5 -27.5 43.5 -46.5s18.667 -40.167 23 -63.5s6.5 -46.333 6.5 -69c0 -27.333 -2.83301 -54.833 -8.5 -82.5s-15.167 -52.667 -28.5 -75s-31 -40.5 -53 -54.5s-49 -21 -81 -21
c-16 0 -32.833 2.33301 -50.5 7s-33.667 11.834 -48 21.501s-26.333 21.5 -36 35.5s-14.5 30.333 -14.5 49c0 8 1.16699 16.667 3.5 26s5.83301 18 10.5 26s10.5 14.833 17.5 20.5s15.167 8.5 24.5 8.5c6.66699 0 12.5 -1.33301 17.5 -4s7.5 -7.66699 7.5 -15
s-0.833008 -14.166 -2.5 -20.499s-2.5 -12.833 -2.5 -19.5c0 -11.333 1.33301 -22.833 4 -34.5s6.83398 -22 12.501 -31s13.167 -16.333 22.5 -22s20.666 -8.5 33.999 -8.5c18 0 33.167 7.5 45.5 22.5s22.5 32.667 30.5 53s13.667 41.333 17 63s5 39.5 5 53.5
c0 10 -1.16699 24.167 -3.5 42.5s-6.5 36.5 -12.5 54.5s-13.667 33.5 -23 46.5s-21 19.5 -35 19.5c-7.33301 0 -14.666 -1.66699 -21.999 -5s-15 -5 -23 -5c-5.33301 0 -12.5 1.16699 -21.5 3.5s-13.5 7.16602 -13.5 14.499c0 4.66699 4.5 14.167 13.5 28.5l30 49
c11 18.333 21 37.666 30 57.999s13.5 39.5 13.5 57.5c0 2.66699 -0.166992 5.83398 -0.5 9.50098s-1 7.33398 -2 11.001s-2.5 6.83398 -4.5 9.50098s-4.66699 4 -8 4c-7.33301 0 -16.666 -5 -27.999 -15s-22.5 -21.667 -33.5 -35s-21 -26.5 -30 -39.5
s-14.833 -22.833 -17.5 -29.5v-21c0 -6.66699 -5 -10 -15 -10c-8.66699 0 -16.5 2.83301 -23.5 8.5s-10.5 13.5 -10.5 23.5c0 14 5.83301 29.667 17.5 47s26 33.666 43 48.999s34.833 28.333 53.5 39s34.667 16 48 16c21.333 0 38.833 -6.16699 52.5 -18.5
s20.5 -29.166 20.5 -50.499c0 -13.333 -2 -27.166 -6 -41.499s-9 -28.5 -15 -42.5s-12.667 -27.667 -20 -41z" />
    <glyph glyph-name="four" unicode="4" horiz-adv-x="351" 
d="M313 292c8.66699 -7.33301 12.002 -14.334 10.002 -21.001s-7 -10.334 -15 -11.001l-23.5 -1.5c-5 -0.333008 -13.167 -0.166016 -24.5 0.500977v-125.5c0 -41.667 1.66699 -85.167 5 -130.5c0 -9.33301 -2.5 -16.166 -7.5 -20.499s-12.167 -7.16602 -21.5 -8.49902
c-5.33301 -0.666992 -10.833 -0.833984 -16.5 -0.500977s-11 1.5 -16 3.5s-9.16699 4.83301 -12.5 8.5s-5 8.83398 -5 15.501c-3.33301 40.667 -4.16602 82.167 -2.49902 124.5s3.16699 86.166 4.5 131.499l-63.5 -4c-21 -1.33301 -42.167 -1.33301 -63.5 0
c-2 0 -5.16699 0.333008 -9.5 1s-8.5 1.66699 -12.5 3s-7.5 3.16602 -10.5 5.49902s-4.5 5.5 -4.5 9.5l6 64l11.5 128.5c3.66699 42.333 7.16699 85.166 10.5 128.499c0.666992 6.66699 1.33398 15 2.00098 25s4.66699 17 12 21
c5.33301 2.66699 11.166 3.83398 17.499 3.50098s12.166 -1.16602 17.499 -2.49902c8 -3.33301 12.333 -8.16602 13 -14.499s0.666992 -12.833 0 -19.5c0 -10 -0.166992 -20 -0.5 -30s-0.5 -20 -0.5 -30l-13 -256c9.33301 0 18.666 0.333008 27.999 1l28 2
c4 0 8.16699 0.166992 12.5 0.5s8.5 0.5 12.5 0.5c6 0.666992 8.83301 2.33398 8.5 5.00098s-0.166016 6.66699 0.500977 12c0 10 0.166992 20.667 0.5 32s0.833008 26 1.5 44s1.16699 40.333 1.5 67s1.16602 60.667 2.49902 102c0 6 -0.166992 12.833 -0.5 20.5s0 15 1 22
s3.16699 13.167 6.5 18.5s9.33301 8.66602 18 9.99902c9.33301 1.33301 17.833 0.5 25.5 -2.5s12.167 -9.83301 13.5 -20.5c1.33301 -8 2 -16 2 -24v-23c0 -20 -0.333008 -41.833 -1 -65.5s-1.16699 -47.334 -1.5 -71.001s-0.5 -46.5 -0.5 -68.5s0.666992 -41 2 -57
c18.667 -0.666992 31.167 -0.666992 37.5 0s11.166 -0.333008 14.499 -3z" />
    <glyph glyph-name="five" unicode="5" horiz-adv-x="359" 
d="M292 631c4 0 7.16797 -1.66797 9.50098 -5.00098s4 -7.16602 5 -11.499s1.66699 -9 2 -14s0.5 -9.16699 0.5 -12.5c-7.33301 0 -19.666 -1 -36.999 -3l-55.5 -6.5c-19.667 -2.33301 -38.334 -4.66602 -56.001 -6.99902s-30.5 -3.83301 -38.5 -4.5
c1.33301 -28.667 0.833008 -57.334 -1.5 -86.001s-3.83301 -57.334 -4.5 -86.001c26.667 18.667 56 28 88 28c24.667 0 44.5 -4.5 59.5 -13.5s26.5 -21 34.5 -36s13.167 -32 15.5 -51s3.5 -38.833 3.5 -59.5c0 -26 -1.5 -56.333 -4.5 -91s-9.83301 -67.667 -20.5 -99
s-26.334 -58 -47.001 -80s-48.667 -33 -84 -33c-16 0 -31.333 3.16699 -46 9.5s-28 15.166 -40 26.499s-22 24.833 -30 40.5s-12.667 32.5 -14 50.5c-1.33301 12.667 0.5 21.834 5.5 27.501s11 9.16699 18 10.5s14 1 21 -1s12.167 -4 15.5 -6
c-2.66699 -7.33301 -2 -17.666 2 -30.999s9.5 -26.5 16.5 -39.5s15.167 -24.167 24.5 -33.5s18.333 -14 27 -14c12.667 0 23.667 5.5 33 16.5s17 25.167 23 42.5s10.833 36.5 14.5 57.5s6.33398 41.5 8.00098 61.5s2.83398 38.333 3.50098 55s1 29 1 37
c0 6 -0.666992 15.333 -2 28s-3.5 25.5 -6.5 38.5s-7.16699 24.333 -12.5 34s-12.333 14.5 -21 14.5c-12 0 -23.5 -3.33301 -34.5 -10s-21.5 -14.667 -31.5 -24s-19.333 -19.5 -28 -30.5s-17 -20.5 -25 -28.5c-9.33301 0 -18.833 2.5 -28.5 7.5s-14.5 12.5 -14.5 22.5
c0 3.33301 0.333008 11.833 1 25.5s1.5 29.5 2.5 47.5s2.16699 37.333 3.5 58s2.66602 39.667 3.99902 57s2.5 31.833 3.5 43.5s1.83301 17.834 2.5 18.501l-5 10c0 3.33301 4.66699 7 14 11s21.333 7.66699 36 11s31.167 6.66602 49.5 9.99902s36.333 6.33301 54 9
s34.167 4.66699 49.5 6s27.666 2 36.999 2z" />
    <glyph glyph-name="six" unicode="6" horiz-adv-x="346" 
d="M198 422c38.667 0 68.8359 -9.99609 90.5029 -29.9961s32.5 -50 32.5 -90c0 -16 -1.66699 -35.333 -5 -58s-8.16602 -46.334 -14.499 -71.001s-14.5 -49.167 -24.5 -73.5s-21.667 -46.166 -35 -65.499s-28.333 -35 -45 -47s-35.334 -18 -56.001 -18
c-28.667 0 -51.334 8 -68.001 24s-29.334 35.5 -38.001 58.5s-14.167 47.667 -16.5 74s-3.5 50.166 -3.5 71.499c0 38.667 2 75.5 6 110.5s9.5 69.167 16.5 102.5s15.167 67.166 24.5 101.499l29 108.5c1.33301 6 5.66602 10.667 12.999 14s15.333 5.33301 24 6
s16.5 -0.333008 23.5 -3s11.167 -7.33398 12.5 -14.001c-2 -4.66699 -5.66699 -15.167 -11 -31.5s-11 -35.5 -17 -57.5s-11.5 -44.833 -16.5 -68.5s-8.16699 -44.834 -9.5 -63.501c28 13.333 57.333 20 88 20zM139.002 6.00391c10.667 0 20.8311 6 30.498 18
s18.667 27.333 27 46s15.833 39.334 22.5 62.001s12.334 44.667 17.001 66s8.33398 40.666 11.001 57.999s4 30 4 38c0 29.333 -4.5 51.833 -13.5 67.5s-24.167 23.5 -45.5 23.5c-15.333 0 -27.166 -2.83301 -35.499 -8.5s-14.666 -12.167 -18.999 -19.5s-8 -14.5 -11 -21.5
s-7.16699 -11.833 -12.5 -14.5c-4 -2 -7.33301 -3.16699 -10 -3.5s-4.33398 -3.5 -5.00098 -9.5c-0.666992 -4 -1.33398 -14.333 -2.00098 -31s-1 -36.167 -1 -58.5s0.333008 -46 1 -71s2.5 -48 5.5 -69s7.5 -38.333 13.5 -52s13.667 -20.5 23 -20.5z" />
    <glyph glyph-name="seven" unicode="7" horiz-adv-x="304" 
d="M234 642c11.333 0 22.166 -2.83301 32.499 -8.5s18.166 -14.834 23.499 -27.501c-21.333 -47.333 -41 -97 -59 -149s-34 -105.167 -48 -159.5s-25.5 -109.166 -34.5 -164.499s-15.5 -110 -19.5 -164c-3.33301 -4 -8.66602 -6.83301 -15.999 -8.5
s-13.666 -2.83398 -18.999 -3.50098c-4.66699 -0.666992 -10 -0.833984 -16 -0.500977s-11.5 1.5 -16.5 3.5s-9.16699 4.83301 -12.5 8.5s-5 8.5 -5 14.5c1.33301 26.667 4.83301 56.667 10.5 90s12.834 68.666 21.501 105.999s18.5 75.333 29.5 114s22.5 76.667 34.5 114
l35.5 106l32.5 90c-6 0.666992 -17.333 1.33398 -34 2.00098s-34.167 0.5 -52.5 -0.5s-35.333 -3.33301 -51 -7s-25.5 -9.16699 -29.5 -16.5c-4.66699 0.666992 -10 3.83398 -16 9.50098s-10.167 11.834 -12.5 18.501s-1.5 12.834 2.5 18.501s14 9.16699 30 10.5
c30 2.66699 60.167 3.66699 90.5 3s63.166 -0.333984 98.499 0.999023z" />
    <glyph glyph-name="eight" unicode="8" horiz-adv-x="398" 
d="M262 333c32.667 -9.33301 59.501 -26.8359 80.501 -52.5029s31.5 -55.834 31.5 -90.501c0 -25.333 -6 -51.166 -18 -77.499s-27.833 -50.333 -47.5 -72s-42 -39.334 -67 -53.001s-50.5 -20.5 -76.5 -20.5c-31.333 0 -54.833 9.16699 -70.5 27.5s-23.5 42.5 -23.5 72.5
c0 18 2.66699 37.833 8 59.5s12.333 43.334 21 65.001s18.5 42.5 29.5 62.5s22.167 37 33.5 51c-16.667 0.666992 -33.334 2.5 -50.001 5.5s-31.834 8.33301 -45.501 16s-24.667 18 -33 31s-12.5 29.5 -12.5 49.5c0 18 3.33301 38.333 10 61s15.834 44.667 27.501 66
s25.334 40.333 41.001 57s32.5 28 50.5 34s39 9.16699 63 9.5s46.833 -3.16699 68.5 -10.5s40 -19 55 -35s22.5 -37 22.5 -63c0 -17.333 -3.33301 -34.666 -10 -51.999s-14.834 -34.166 -24.501 -50.499s-20.167 -32.166 -31.5 -47.499zM94.001 409.997
c0 -16 2.49609 -28.5 7.49609 -37.5s11.833 -15.667 20.5 -20s18.834 -7.16602 30.501 -8.49902s23.834 -2 36.501 -2l28.5 37.5c11 15 21.667 31 32 48s19 34 26 51s10.5 32.5 10.5 46.5c0 25.333 -7.33301 44.166 -22 56.499s-34 18.5 -58 18.5
c-14.667 0 -28.667 -7.66699 -42 -23s-25.166 -33.333 -35.499 -54s-18.666 -41.667 -24.999 -63s-9.5 -38 -9.5 -50zM165.997 8.99707c14.667 0 30.833 6.66309 48.5 19.9961s34 29.5 49 48.5s27.5 39.333 37.5 61s15 40.834 15 57.501c0 8 -2.33301 17.667 -7 29
s-10.667 22.166 -18 32.499s-15.666 19 -24.999 26s-18.333 10.5 -27 10.5c-5.33301 0 -11.5 -5.16699 -18.5 -15.5s-14.333 -23.666 -22 -39.999s-15 -34.166 -22 -53.499s-13.333 -38.166 -19 -56.499s-10.167 -34.666 -13.5 -48.999s-5 -24.5 -5 -30.5
c0 -9.33301 1.66699 -18.333 5 -27s10.666 -13 21.999 -13z" />
    <glyph glyph-name="nine" unicode="9" horiz-adv-x="362" 
d="M200 639c14 0 26.002 -1.83105 36.002 -5.49805s18.333 -7.83398 25 -12.501l17.5 -12.5c5 -3.66699 9.5 -5.83398 13.5 -6.50098c11.333 -1.33301 19.666 -4.66602 24.999 -9.99902s8 -14 8 -26c0 -8.66699 -0.166992 -18.334 -0.5 -29.001s-1 -25.334 -2 -44.001
s-2.16699 -43 -3.5 -73l-5 -117v-32c0 -18 -0.166992 -39.833 -0.5 -65.5s-1.33301 -53 -3 -82s-4.16699 -56.167 -7.5 -81.5s-8 -47.166 -14 -65.499s-13.667 -29.166 -23 -32.499c-4.66699 -2 -9.33398 -3.33301 -14.001 -4s-9.66699 -1 -15 -1
c-13.333 0 -26 3.5 -38 10.5s-18 18.167 -18 33.5c0 10.667 1.83301 16.834 5.5 18.501s8 3 13 4s9.5 3.5 13.5 7.5s6.66699 13 8 27c3.33301 44 5.66602 88 6.99902 132s3.33301 88 6 132c-13.333 -18.667 -30.666 -35 -51.999 -49s-44 -21 -68 -21
c-32 0 -54.167 10.167 -66.5 30.5s-18.5 44.5 -18.5 72.5c0 16.667 1.33301 35.667 4 57s7 43.166 13 65.499s13.5 44.166 22.5 65.499s19.833 40.5 32.5 57.5s27.167 30.667 43.5 41s34.833 15.5 55.5 15.5zM121.002 270.002c12 0 23.3301 6.16895 33.9971 18.502
s20.667 28.166 30 47.499s17.833 40.833 25.5 64.5s14.167 46.667 19.5 69s9.5 42.833 12.5 61.5s4.5 33 4.5 43c0 9.33301 -5.16699 17.5 -15.5 24.5s-19.5 10.5 -27.5 10.5c-11.333 0 -21.833 -5.33301 -31.5 -16s-18.5 -24.5 -26.5 -41.5s-15.167 -35.833 -21.5 -56.5
s-11.666 -40.834 -15.999 -60.501s-7.66602 -37.667 -9.99902 -54s-3.5 -28.833 -3.5 -37.5c0 -4 0.333008 -10 1 -18s1.83398 -16.167 3.50098 -24.5s4.16699 -15.5 7.5 -21.5s8 -9 14 -9z" />
    <glyph glyph-name="colon" unicode=":" horiz-adv-x="173" 
d="M122 39c0 -6.66699 0.164062 -13.1689 0.49707 -19.502s-3.16699 -11.166 -10.5 -14.499c-9.33301 -4.66699 -19.666 -6.33398 -30.999 -5.00098s-19 4.33301 -23 9s-5.66699 12.334 -5 23.001c0 6.66699 0.333008 14.5 1 23.5s4.33398 15.167 11.001 18.5
c9.33301 4.66699 20.333 6.33398 33 5.00098c12.667 -2 19.834 -6.33301 21.501 -13s2.5 -15.667 2.5 -27zM54.9971 225.998c-2.66699 2.66699 -3.99805 6.66504 -3.99805 11.998s0.666992 10.5 2 15.5s3.33301 9.5 6 13.5s5.66699 6.66699 9 8
c6.66699 2.66699 15.167 3.83398 25.5 3.50098s18.166 -3.5 23.499 -9.5c2.66699 -3.33301 3.66699 -8 3 -14s-0.666992 -10.667 0 -14c0.666992 -4.66699 0.666992 -8.66699 0 -12s-3.33398 -6.66602 -8.00098 -9.99902c-8 -4.66699 -18 -6.5 -30 -5.5
s-21 5.16699 -27 12.5z" />
    <glyph glyph-name="semicolon" unicode=";" horiz-adv-x="204" 
d="M88 58c-2 5.33301 -0.833008 9.33594 3.5 12.0029s9.66602 4.33398 15.999 5.00098s12.833 0.166992 19.5 -1.5s11.334 -3.83398 14.001 -6.50098c6 -7.33301 9.33301 -16 10 -26s-0.333008 -20.333 -3 -31s-6.5 -20.834 -11.5 -30.501s-10.167 -17.5 -15.5 -23.5
c-11.333 -12.667 -26 -18.334 -44 -17.001c-2.66699 0 -6 0.5 -10 1.5s-7.5 2.5 -10.5 4.5s-5 4.33301 -6 7s0.166992 5.66699 3.5 9c11.333 12.667 21.5 27.167 30.5 43.5s10.167 34.166 3.5 53.499zM153 244.003c0.666992 -11.333 -1.50195 -19.667 -6.50195 -25
s-13.833 -8 -26.5 -8c-4.66699 0 -10 0.666992 -16 2s-10.667 4 -14 8c-3.33301 3.33301 -4.66602 7.33301 -3.99902 12s1.33398 8.66699 2.00098 12c0.666992 11.333 3.16699 19.833 7.5 25.5s12.5 8.5 24.5 8.5c12.667 0 21.167 -3 25.5 -9s6.83301 -14.667 7.5 -26z" />
    <glyph glyph-name="less" unicode="&#x3c;" horiz-adv-x="369" 
d="M305 83c7.33301 -4 11.8301 -9.16211 13.4971 -15.4951s-2.16602 -11.5 -11.499 -15.5c-8 -3.33301 -16.667 -4.83301 -26 -4.5s-17.666 2.16602 -24.999 5.49902c-34 14.667 -67.167 32.167 -99.5 52.5s-67.5 39.166 -105.5 56.499c-4.66699 2 -10 5.33301 -16 10
s-6.66699 10.667 -2 18s10.334 13.166 17.001 17.499s13.667 9.16602 21 14.499l55.5 41.5l56.5 40.5c6.66699 4.66699 14.334 10.5 23.001 17.5s17.667 13 27 18s19 8.16699 29 9.5s19.333 -1.33398 28 -8.00098c4 -3.33301 5.16699 -7 3.5 -11s-4.5 -7.83301 -8.5 -11.5
s-8.5 -7 -13.5 -10s-8.5 -5.16699 -10.5 -6.5l-91.5 -69c-23.667 -17.333 -43.834 -32.666 -60.501 -45.999c36 -16.667 69.667 -33.334 101 -50.001s63 -34.667 95 -54z" />
    <glyph glyph-name="equal" unicode="=" horiz-adv-x="419" 
d="M317 296c2.66699 0 6.16895 -1 10.502 -3s8 -4.16699 11 -6.5s4.66699 -5.16602 5 -8.49902s-1.83398 -6.66602 -6.50098 -9.99902c-8.66699 -6.66699 -19.167 -10 -31.5 -10s-23.5 0.333008 -33.5 1c-28 1.33301 -55.833 1.5 -83.5 0.5s-54.5 -1.5 -80.5 -1.5
c-2.66699 0 -6.33398 0.5 -11.001 1.5s-9 2.66699 -13 5s-6.66699 5 -8 8s0 6.5 4 10.5c7.33301 7.33301 17 11.166 29 11.499s22.667 0.5 32 0.5c28 0.666992 57.333 1.66699 88 3s60 0.666016 88 -2.00098zM336.002 173
c4.66699 -4.66699 6.33203 -8.66992 4.99902 -12.0029s-4.33301 -6.16602 -9 -8.49902s-9.83398 -4 -15.501 -5s-9.83398 -1.5 -12.501 -1.5c-13.333 0 -26.666 -0.166992 -39.999 -0.5s-26.666 -0.833008 -39.999 -1.5c-14 -0.666992 -27.833 -1.16699 -41.5 -1.5
s-27.5 -0.5 -41.5 -0.5c-4.66699 0 -10.167 -0.166992 -16.5 -0.5s-12.5 -0.166016 -18.5 0.500977s-11.333 2 -16 4s-7.66699 5.33301 -9 10c-1.33301 4 -0.666016 7.5 2.00098 10.5s6 5.5 10 7.5s8.16699 3.33301 12.5 4s7.5 1 9.5 1h83c13.333 0 27 0.5 41 1.5
s27.667 1.5 41 1.5c9.33301 0 19 0.333008 29 1s19 -2.66602 27 -9.99902z" />
    <glyph glyph-name="greater" unicode="&#x3e;" horiz-adv-x="369" 
d="M64 83c32 19.333 63.6641 37.3281 94.9971 53.9951s65 33.334 101 50.001c-16.667 13.333 -36.834 28.666 -60.501 45.999l-91.5 69c-2 1.33301 -5.5 3.5 -10.5 6.5s-9.5 6.33301 -13.5 10s-6.83301 7.5 -8.5 11.5s-0.5 7.66699 3.5 11
c8.66699 6.66699 18 9.33398 28 8.00098s19.667 -4.5 29 -9.5s18.333 -11 27 -18s16.334 -12.833 23.001 -17.5l56.5 -40.5l55.5 -41.5c7.33301 -5.33301 14.333 -10.166 21 -14.499s12.334 -10.166 17.001 -17.499s4 -13.333 -2 -18s-11.333 -8 -16 -10
c-38 -17.333 -73.167 -36.166 -105.5 -56.499s-65.5 -37.833 -99.5 -52.5c-7.33301 -3.33301 -15.666 -5.16602 -24.999 -5.49902s-18 1.16699 -26 4.5c-9.33301 4 -13.166 9.16699 -11.499 15.5s6.16699 11.5 13.5 15.5z" />
    <glyph glyph-name="question" unicode="?" horiz-adv-x="363" 
d="M219 644c36 0 63.998 -9.99609 83.998 -29.9961s30 -48 30 -84s-7.5 -71.667 -22.5 -107s-31.333 -68.666 -49 -99.999l-49 -85.5c-15 -25.667 -22.5 -46.834 -22.5 -63.501c0 -13.333 -2.5 -22 -7.5 -26s-14.833 -6 -29.5 -6c-11.333 0 -21.666 2.16699 -30.999 6.5
s-14 13.166 -14 26.499c0 20 8.16699 43.333 24.5 70l54 88c19.667 32 37.667 66.5 54 103.5s24.5 75.833 24.5 116.5c0 14.667 -2.83301 28.5 -8.5 41.5s-17.167 19.5 -34.5 19.5c-25.333 0 -46.333 -6 -63 -18s-30.5 -25.833 -41.5 -41.5s-19.167 -30.834 -24.5 -45.501
s-9 -24.334 -11 -29.001c-6.66699 0 -13.667 1.5 -21 4.5s-11 8.5 -11 16.5c0 16.667 5.16699 33.667 15.5 51s23.833 32.666 40.5 45.999s34.834 24.333 54.501 33s39.167 13 58.5 13zM150.998 60.0039c10 0 17.5 -1.5 22.5 -4.5s8.66699 -7.33301 11 -13
s3.66602 -12 3.99902 -19s0.5 -14.5 0.5 -22.5c0 -10 -4 -16.667 -12 -20s-16.333 -5 -25 -5c-11.333 0 -20.166 2.16699 -26.499 6.5s-9.5 12.833 -9.5 25.5c0 6.66699 0.166992 13.167 0.5 19.5s1.66602 11.833 3.99902 16.5s5.83301 8.5 10.5 11.5s11.334 4.5 20.001 4.5
z" />
    <glyph glyph-name="at" unicode="@" horiz-adv-x="641" 
d="M365 579c36 0 67.998 -8.33691 95.998 -25.0039s51.667 -38.167 71 -64.5s34 -55.833 44 -88.5s15 -65 15 -97c0 -22.667 -3.33301 -47 -10 -73s-16.667 -50.167 -30 -72.5s-30 -41 -50 -56s-43.333 -22.5 -70 -22.5c-17.333 0 -33.166 4.16699 -47.499 12.5
s-25.166 20.5 -32.499 36.5c-5.33301 -10.667 -11.5 -22 -18.5 -34s-15 -23.167 -24 -33.5s-19 -18.833 -30 -25.5s-23.167 -10 -36.5 -10c-12.667 0 -23 3 -31 9s-14.333 13.5 -19 22.5s-8 19 -10 30s-3 21.5 -3 31.5c0 18.667 2.5 41.667 7.5 69s13 53.333 24 78
s25.167 45.834 42.5 63.501s38.333 26.5 63 26.5c26.667 0 47.334 -7.66699 62.001 -23s22 -36.333 22 -63c0 -6 -0.333008 -17.667 -1 -35s-0.333984 -35.166 0.999023 -53.499s4.66602 -34.5 9.99902 -48.5s13.666 -21 24.999 -21c18 0 33.333 8 46 24s23 34.833 31 56.5
s13.833 43.5 17.5 65.5s5.5 39 5.5 51c0 22.667 -3.66699 47.667 -11 75s-18.166 53 -32.499 77s-31.833 44 -52.5 60s-44.334 24 -71.001 24c-27.333 0 -52.166 -7 -74.499 -21s-42.333 -32.333 -60 -55s-33.167 -48.334 -46.5 -77.001s-24.333 -57.667 -33 -87
s-15.167 -57.833 -19.5 -85.5s-6.5 -51.5 -6.5 -71.5c0 -12.667 1.16699 -28.834 3.5 -48.501s5.83301 -40.5 10.5 -62.5s10.834 -44 18.501 -66s16.834 -41.833 27.501 -59.5s22.834 -32 36.501 -43s29.167 -16.5 46.5 -16.5c22 0 43.667 7.66699 65 23
s41.5 33.833 60.5 55.5s36.167 44.334 51.5 68.001s27.666 43.834 36.999 60.501c7.33301 12.667 18.666 19 33.999 19c5.33301 0 11 -1.33301 17 -4s9 -7.33398 9 -14.001c0 -9.33301 -3.33301 -19.833 -10 -31.5l-17 -29.5c-12.667 -22.667 -27.667 -45 -45 -67
s-36.5 -41.667 -57.5 -59s-44 -31.333 -69 -42s-51.5 -16 -79.5 -16c-39.333 0 -72.833 11 -100.5 33s-50.167 49.333 -67.5 82s-29.833 68 -37.5 106s-11.5 73 -11.5 105c0 28.667 3 59.5 9 92.5s15.167 65.833 27.5 98.5s27.333 63.834 45 93.501
s38.167 55.834 61.5 78.501s49.333 40.834 78 54.501s60 20.5 94 20.5zM250.998 68.9961c13.333 1.33301 24.832 7.66895 34.499 19.002s17.834 25.166 24.501 41.499s12.167 34.166 16.5 53.499s8 37.5 11 54.5s5.66699 31.5 8 43.5s5.16602 19.333 8.49902 22
c-3.33301 6.66699 -7.66602 13 -12.999 19s-11.666 9 -18.999 9c-10.667 0 -21.167 -6.5 -31.5 -19.5s-19.5 -29.333 -27.5 -49s-14.833 -41 -20.5 -64s-9.33398 -44.167 -11.001 -63.5s-1 -35.333 2 -48s8.83301 -18.667 17.5 -18z" />
    <glyph glyph-name="A" unicode="A" 
d="M314 261c8 0.666992 17.165 0.661133 27.498 -0.00585938s17.166 -5.33398 20.499 -14.001c0 -5.33301 -2 -9.66602 -6 -12.999s-8.5 -6 -13.5 -8s-10 -3.33301 -15 -4s-8.5 -1 -10.5 -1c1.33301 -24 3 -50.167 5 -78.5s4.66699 -55.333 8 -81s7.33301 -48 12 -67
s10.334 -31.167 17.001 -36.5l-4 -4c-2.66699 -2.66699 -6.5 -5.5 -11.5 -8.5s-11 -5.66699 -18 -8s-14.5 -3.5 -22.5 -3.5c-14 0 -25 9.5 -33 28.5s-14.333 42.5 -19 70.5s-7.83398 58.333 -9.50098 91s-2.83398 62.667 -3.50098 90c-16 -1.33301 -34 -3.33301 -54 -6
s-37.667 -5.33398 -53 -8.00098c-1.33301 -4 -2.66602 -11.5 -3.99902 -22.5l-4.5 -38c-1.66699 -14.333 -3.33398 -29.666 -5.00098 -45.999s-2.83398 -31.666 -3.50098 -45.999s-1 -27 -1 -38s0.666992 -18.5 2 -22.5c-2 -5.33301 -6.66699 -8.66602 -14 -9.99902
s-12.666 -2 -15.999 -2c-13.333 0 -21.666 4.16699 -24.999 12.5s-5 19.166 -5 32.499c0 28 2.33301 56.333 7 85l14 84c-5.33301 -1.33301 -14.166 -3.16602 -26.499 -5.49902s-21.166 -5.16602 -26.499 -8.49902c-6 3.33301 -10 10.666 -12 21.999
c-0.666992 4 2 7.5 8 10.5s13 5.5 21 7.5s16 3.66699 24 5s13.667 2.33301 17 3c8 56.667 18 113.334 30 170.001s28.667 113.334 50 170.001c2 6 4.83301 13 8.5 21s8.33398 15.5 14.001 22.5s11.834 12.5 18.501 16.5s14 5 22 3c-0.666992 8 -1.33398 15.5 -2.00098 22.5
s-0.333984 13.333 0.999023 19s4.5 10 9.5 13s13.167 4.5 24.5 4.5c4.66699 0 10.334 -0.666992 17.001 -2c6 -1.33301 10.5 -3.83301 13.5 -7.5s5 -7.66699 6 -12s1.5 -9.16602 1.5 -14.499s0.333008 -10.333 1 -15c5.33301 -62.667 8.83301 -124.667 10.5 -186
s4.16699 -123.666 7.5 -186.999zM133.998 234.994c15.333 3.33301 32.3311 5.99805 50.998 7.99805s35.667 4.33301 51 7c-1.33301 56.667 -3.16602 116 -5.49902 178s-4.5 123.667 -6.5 185c-5.33301 -3.33301 -11.166 -13.666 -17.499 -30.999
s-12.666 -38.666 -18.999 -63.999s-12.5 -52.833 -18.5 -82.5s-11.333 -58 -16 -85l-12.5 -72c-3.66699 -21 -5.83398 -35.5 -6.50098 -43.5z" />
    <glyph glyph-name="B" unicode="B" horiz-adv-x="437" 
d="M335 149c0 21.333 -4.50488 38.168 -13.5049 50.501s-20.333 21.833 -34 28.5s-28.5 11.5 -44.5 14.5s-30.833 5.33301 -44.5 7s-25 3.83398 -34 6.50098s-13.5 7 -13.5 13c0 6.66699 4.5 15 13.5 25s20.167 21.5 33.5 34.5l43 43
c15.333 15.667 29.666 32.167 42.999 49.5s24.5 35.5 33.5 54.5s13.5 38.5 13.5 58.5c0 30.667 -9.66699 54.5 -29 71.5s-43.666 25.5 -72.999 25.5c-25.333 0 -48.333 -3.5 -69 -10.5s-39 -15.667 -55 -26s-29.333 -21 -40 -32s-18.667 -20.5 -24 -28.5
c-7.33301 0 -14.333 2.83301 -21 8.5s-10 11.167 -10 16.5c0 14 7 27.333 21 40s31.833 23.667 53.5 33s45.834 16.666 72.501 21.999s53 8 79 8c20 0 39.5 -2.83301 58.5 -8.5s36 -14 51 -25s27 -24.833 36 -41.5s13.5 -36 13.5 -58
c0 -23.333 -5.66699 -46.166 -17 -68.499s-25.166 -43.833 -41.499 -64.5s-33.833 -40.334 -52.5 -59.001s-35 -36.334 -49 -53.001c20 -3.33301 40.167 -7.5 60.5 -12.5s38.833 -12.333 55.5 -22s30.167 -22.5 40.5 -38.5s15.5 -36.333 15.5 -61
c0 -25.333 -5.16699 -49.666 -15.5 -72.999s-24.333 -44 -42 -62s-38.167 -32.333 -61.5 -43s-47.666 -16 -72.999 -16c-32 0 -57.5 8.5 -76.5 25.5s-33.333 38.167 -43 63.5s-16 52.666 -19 81.999s-4.5 56.666 -4.5 81.999c0 48 2.16699 98.167 6.5 150.5
s11.166 102.166 20.499 149.499c1.33301 6.66699 4.83301 11.334 10.5 14.001s12 3.66699 19 3s13.833 -2.66699 20.5 -6s12 -7.33301 16 -12c-4 -4 -7.66699 -16.333 -11 -37s-6 -44.834 -8 -72.501s-3.66699 -56.667 -5 -87s-2 -57.166 -2 -80.499
c0 -4.66699 0.333008 -13.667 1 -27s1.83398 -28.666 3.50098 -45.999s4.33398 -35.666 8.00098 -54.999s8.33398 -37 14.001 -53s12.667 -29.167 21 -39.5s18.5 -15.5 30.5 -15.5c15.333 0.666992 30 6.16699 44 16.5s26.5 23.166 37.5 38.499s19.833 31.833 26.5 49.5
s10 34.167 10 49.5z" />
    <glyph glyph-name="C" unicode="C" horiz-adv-x="344" 
d="M162 -8c11.333 0 23.6641 4.66895 36.9971 14.002s26.166 20.166 38.499 32.499s23.333 24.666 33 36.999l20.5 26.5c5.33301 0 10.5 -1 15.5 -3s7.5 -6.33301 7.5 -13c0 -15.333 -5 -30.833 -15 -46.5s-22.5 -30.167 -37.5 -43.5s-31.167 -24.166 -48.5 -32.499
s-33.333 -12.5 -48 -12.5c-32 0 -58.167 7.83301 -78.5 23.5s-36.166 35.5 -47.499 59.5s-19 50.333 -23 79s-6 55.667 -6 81c0 18.667 1 42.5 3 71.5s5.5 59.667 10.5 92s11.833 64.666 20.5 96.999s20 61.333 34 87s30.667 46.667 50 63s42 24.5 68 24.5
c38 0 66 -11.667 84 -35s27 -52.333 27 -87c0 -7.33301 -0.833008 -20.166 -2.5 -38.499s-4.66699 -37 -9 -56s-10.166 -35.833 -17.499 -50.5s-16.666 -22 -27.999 -22c-4.66699 0 -9.5 1 -14.5 3s-7.5 5.66699 -7.5 11c5.33301 8 10.5 19.5 15.5 34.5s9 31.5 12 49.5
s4.5 36.5 4.5 55.5s-1.83301 36.167 -5.5 51.5s-9.83398 28 -18.501 38s-20.334 15 -35.001 15s-27.667 -7.83301 -39 -23.5s-21.166 -35.667 -29.499 -60s-15.5 -51.333 -21.5 -81s-10.833 -58.5 -14.5 -86.5s-6.33398 -53.5 -8.00098 -76.5s-2.5 -39.833 -2.5 -50.5
c0 -7.33301 0.333008 -17.833 1 -31.5s1.83398 -29 3.50098 -46s4.33398 -34.333 8.00098 -52s8.33398 -33.834 14.001 -48.501s12.5 -26.667 20.5 -36s17.667 -14 29 -14z" />
    <glyph glyph-name="D" unicode="D" horiz-adv-x="483" 
d="M103 628c47.333 0 92.1689 -11.834 134.502 -35.501s79.5 -54.667 111.5 -93s57.333 -81.833 76 -130.5s28 -98 28 -148c0 -30 -6 -61.167 -18 -93.5s-28.5 -62 -49.5 -89s-45.833 -49.167 -74.5 -66.5s-59.334 -26 -92.001 -26c-5.33301 0 -12.333 1 -21 3
s-17 4.83301 -25 8.5s-15 8.16699 -21 13.5s-9 11.666 -9 18.999c0 3.33301 2 6.33301 6 9c-6 -0.666992 -12.833 -0.666992 -20.5 0s-13.834 3.66699 -18.501 9c-1.33301 2 -2.5 5.83301 -3.5 11.5s-1.66699 11.834 -2 18.501s-0.833008 13.167 -1.5 19.5
s-1 10.833 -1 13.5c-4 38.667 -11 77.334 -21 116.001l-31 116c-10.667 38.667 -20 77.5 -28 116.5s-12 78.167 -12 117.5c0 30.667 8 53.5 24 68.5s39 22.5 69 22.5zM206.003 -5.00098c6 -6 14.166 -8.5 24.499 -7.5s18.833 3.5 25.5 7.5c46 25.333 78.833 58 98.5 98
s29.5 86.667 29.5 140c0 22.667 -3.33301 47.334 -10 74.001s-16.167 53.667 -28.5 81s-27 53.666 -44 78.999s-35.833 47.833 -56.5 67.5s-43 35.334 -67 47.001s-48.667 17.5 -74 17.5c-8.66699 0 -15.5 -2 -20.5 -6s-8.83301 -9.16699 -11.5 -15.5
s-4.5 -13.166 -5.5 -20.499s-1.5 -14.333 -1.5 -21c0 -18 1.5 -37.333 4.5 -58s6.83301 -41.5 11.5 -62.5s9.83398 -41.5 15.501 -61.5l15.5 -57c1.33301 16 2.33301 32.167 3 48.5s1 32.5 1 48.5c0 4.66699 -1 6.83398 -3 6.50098s-4.33301 0.833984 -7 3.50098
c1.33301 8.66699 2.33301 18.167 3 28.5s2 20.166 4 29.499s5.16699 17.333 9.5 24s11.166 11 20.499 13c7.33301 1.33301 13 0.166016 17 -3.50098s7 -8.33398 9 -14.001s3.33301 -11.834 4 -18.501s1 -12.334 1 -17.001c0 -52.667 -1 -105 -3 -157s-3 -104.333 -3 -157
c0 -18.667 0.833008 -37.167 2.5 -55.5s2.5 -36.5 2.5 -54.5c0 -7.33301 -2 -12.666 -6 -15.999c6.66699 1.33301 13.834 1.33301 21.501 0s13.5 -5 17.5 -11z" />
    <glyph glyph-name="E" unicode="E" horiz-adv-x="356" 
d="M318 57c5.33301 0 11.335 -1.66211 18.002 -4.99512s10 -8.66602 10 -15.999c0 -6 -5.16699 -11.833 -15.5 -17.5s-23.5 -10.834 -39.5 -15.501s-33.667 -9.16699 -53 -13.5s-38 -7.83301 -56 -10.5s-34.333 -4.83398 -49 -6.50098s-25 -2.5 -31 -2.5
c-3.33301 0 -8.16602 1 -14.499 3s-12.5 4.66699 -18.5 8s-11.167 7.16602 -15.5 11.499s-6.5 8.83301 -6.5 13.5c0 14.667 0.166992 27.667 0.5 39s0.5 22.666 0.5 33.999s0.333008 23.666 1 36.999s1 29.166 1 47.499s0.166992 40.166 0.5 65.499s0.5 56 0.5 92
c-0.666992 0 -2.66699 -0.166992 -6 -0.5s-7.16602 -0.666016 -11.499 -0.999023s-8.33301 -1 -12 -2s-5.83398 -1.83301 -6.50098 -2.5c-0.666992 1.33301 -1.66699 3.5 -3 6.5s-2 7.16699 -2 12.5c0 6 1.66699 10.333 5 13s7.16602 4.5 11.499 5.5s9 1.5 14 1.5
s9.16699 0.333008 12.5 1v180c0 12.667 1 22.5 3 29.5s11 10.5 27 10.5c12.667 0 21.834 -2.33301 27.501 -7s8.5 -13.667 8.5 -27c0 -59.333 1 -120 3 -182c9.33301 0.666992 20.833 1 34.5 1h40.5c13.333 0 25.333 0.166992 36 0.5s17.667 1.16602 21 2.49902
c4 -2 7 -5 9 -9s2.66699 -8 2 -12s-2.5 -7.5 -5.5 -10.5s-7.5 -4.5 -13.5 -4.5h-25.5h-37c-13 0 -25.333 -0.166992 -37 -0.5s-20.167 -0.833008 -25.5 -1.5c0 -28.667 0.5 -55.334 1.5 -80.001l3 -73.5c1 -24.333 1.66699 -49.166 2 -74.499
s0.166016 -52.333 -0.500977 -81c12.667 -0.666992 29.5 0.5 50.5 3.5s41.667 6.83301 62 11.5s38.166 9.33398 53.499 14.001s23.666 8.66699 24.999 12zM15.002 592.005c0 4.66699 7.49902 9.83496 22.499 15.502s33.667 10.667 56 15s46.833 8 73.5 11
s51.667 4.16699 75 3.5s43.333 -3.16699 60 -7.5s26.334 -11.5 29.001 -21.5c2 -7.33301 1.33301 -13.833 -2 -19.5s-8 -9.16699 -14 -10.5c-15.333 10.667 -36.5 17.167 -63.5 19.5s-54.833 2.16602 -83.5 -0.500977s-55.667 -6.83398 -81 -12.501s-44 -10.834 -56 -15.501
c-3.33301 -1.33301 -6.83301 0.833984 -10.5 6.50098s-5.5 11.167 -5.5 16.5z" />
    <glyph glyph-name="F" unicode="F" horiz-adv-x="338" 
d="M252 354c9.33301 -10 13.6699 -18.1709 13.0029 -24.5039s-4.5 -11.333 -11.5 -15s-16.5 -6.16699 -28.5 -7.5s-24.333 -2 -37 -2h-38c1.33301 -57.333 4.5 -116 9.5 -176s7.5 -116.667 7.5 -170c0 -11.333 -4.5 -18.333 -13.5 -21s-18.167 -4 -27.5 -4
c-6 0 -14 0.833008 -24 2.5s-17.333 4.83398 -22 9.50098c1.33301 4.66699 2 16.167 2 34.5s-0.166992 40 -0.5 65s-0.833008 51.667 -1.5 80s-1.33398 55 -2.00098 80s-1.33398 46.5 -2.00098 64.5s-1 29.667 -1 35c-4 0.666992 -9.33301 0.833984 -16 0.500977
s-13 -1 -19 -2s-11.167 -2.5 -15.5 -4.5s-6.5 -4 -6.5 -6c-2 4.66699 -3.83301 9.5 -5.5 14.5s-2.5 10.5 -2.5 16.5c0 4.66699 2.66699 8.33398 8 11.001s11.5 4.5 18.5 5.5s14.167 1.66699 21.5 2s12.666 0.5 15.999 0.5v33c0 23.333 0.166992 46.5 0.5 69.5
s0.833008 46.167 1.5 69.5c0.666992 16.667 3.16699 28 7.5 34s15.833 9 34.5 9c15.333 0 26 -6.33301 32 -19s9 -25.667 9 -39c0 -4.66699 -1.66699 -8 -5 -10v-143h26.5c9.66699 0 19 0.333008 28 1s17.5 1.33398 25.5 2.00098s14 2 18 4zM490.004 622.996
c19.333 0 30.834 -5.33691 34.501 -16.0039s0.166992 -23.667 -10.5 -39c-2.66699 2.66699 -15.5 4.66699 -38.5 6s-51.5 2.33301 -85.5 3s-70.833 0.833984 -110.5 0.500977s-77.334 -1.16602 -113.001 -2.49902s-66.667 -3 -93 -5s-42.833 -4 -49.5 -6
c-8 4.66699 -12 11.667 -12 21c0 6.66699 10.667 12.334 32 17.001s48.166 8.33398 80.499 11.001s68 4.66699 107 6s76.333 2.33301 112 3s66.834 1 93.501 1h53z" />
    <glyph glyph-name="G" unicode="G" horiz-adv-x="464" 
d="M436 337c5.33301 0 7.8291 -2.67773 7.49609 -8.01074s-0.5 -11.666 -0.5 -18.999s-2.33301 -12.666 -7 -15.999s-10.5 -5.5 -17.5 -6.5s-14.167 -1.66699 -21.5 -2s-13.666 -1.16602 -18.999 -2.49902c5.33301 -3.33301 8 -7.66602 8 -12.999
c0 -20.667 -2.16699 -48.167 -6.5 -82.5s-8.16602 -70.166 -11.499 -107.499s-5 -73 -5 -107s4.66699 -61 14 -81c-17.333 -14 -31.666 -21.333 -42.999 -22s-20.5 2.83301 -27.5 10.5s-12 18.334 -15 32.001s-4.5 28.334 -4.5 44.001s1.16699 30.834 3.5 45.501
s5.16602 26.667 8.49902 36c-7.33301 -13.333 -15.666 -26.166 -24.999 -38.499s-19.666 -23.166 -30.999 -32.499s-24 -16.833 -38 -22.5s-29 -8.5 -45 -8.5c-36 0 -64 9.33301 -84 28s-34.833 42 -44.5 70s-15.667 57.833 -18 89.5s-3.5 60.5 -3.5 86.5
c0 22.667 1.5 49.334 4.5 80.001s8.33301 62.5 16 95.5s18 65.333 31 97s29.667 60.167 50 85.5s44.833 45.833 73.5 61.5s62.334 23.5 101.001 23.5c19.333 0 36 -3.33301 50 -10s25.667 -15.334 35 -26.001s16.166 -23 20.499 -37s6.5 -28 6.5 -42
c0 -4.66699 -0.333008 -10.667 -1 -18s-3.16699 -14 -7.5 -20s-11.166 -10.5 -20.499 -13.5s-23 -1.83301 -41 3.5c5.33301 6.66699 8.66602 17.334 9.99902 32.001s0.166016 29.334 -3.50098 44.001s-9.83398 27.5 -18.501 38.5s-20 16.5 -34 16.5
c-27.333 0 -51 -8.16699 -71 -24.5s-37 -37.166 -51 -62.499s-25.667 -53.666 -35 -84.999s-16.666 -61.833 -21.999 -91.5s-9 -57 -11 -82s-3 -43.833 -3 -56.5c0 -8 0.166992 -19.333 0.5 -34s1.33301 -31 3 -49s4 -36.333 7 -55s7.16699 -35.834 12.5 -51.501
s12 -28.334 20 -38.001s17.667 -14.5 29 -14.5c16.667 0 31.834 5.83301 45.501 17.5s25.667 26.5 36 44.5s19.333 38 27 60s14.167 43.667 19.5 65s9.66602 40.666 12.999 57.999s5.66602 30.666 6.99902 39.999l-31 -9c0 -5.33301 -2.83301 -8.66602 -8.5 -9.99902
s-10.167 -2 -13.5 -2c-9.33301 0 -20.333 1.5 -33 4.5s-21 9.16699 -25 18.5c0 3.33301 1.33301 6 4 8s5.33398 3.66699 8.00098 5s9.83398 3.83301 21.501 7.5s25.334 7.66699 41.001 12l50.5 14c18 5 34.833 9.33301 50.5 13l40.5 9.5c11.333 2.66699 18.666 4 21.999 4z
" />
    <glyph glyph-name="H" unicode="H" horiz-adv-x="447" 
d="M392 637c-1.33301 -18 -2.50098 -43.1719 -3.50098 -75.5049s-2 -68.333 -3 -108s-1.5 -81.5 -1.5 -125.5s0.5 -87 1.5 -129s2.33301 -81.5 4 -118.5s4.16699 -67.833 7.5 -92.5c0 -11.333 -4.16699 -18.666 -12.5 -21.999s-17.166 -5 -26.499 -5
c-14.667 0 -24.667 4 -30 12s-9.66602 18.333 -12.999 31s-7.33301 27 -12 43s-13 32.333 -25 49c-17.333 24 -38.333 44.5 -63 61.5s-51 30.5 -79 40.5c0 -16 0.166992 -34.833 0.5 -56.5s1.33301 -42.5 3 -62.5s4.16699 -37.167 7.5 -51.5s7.66602 -22.166 12.999 -23.499
c-3.33301 -9.33301 -8.83301 -17 -16.5 -23s-16 -10.167 -25 -12.5s-17.5 -2.16602 -25.5 0.500977s-13.667 8.33398 -17 17.001c-3.33301 10 -6 24.167 -8 42.5s-3.5 38.166 -4.5 59.499s-1.66699 42.666 -2 63.999s-0.5 40 -0.5 56c-4.66699 2 -10 3 -16 3
s-11.667 0.5 -17 1.5s-9.66602 3 -12.999 6s-4.66602 8.5 -3.99902 16.5c1.33301 9.33301 6.83301 15.833 16.5 19.5s20.167 4.83398 31.5 3.50098c0 26.667 0.166992 53.667 0.5 81s0.833008 53.666 1.5 78.999s1.16699 49 1.5 71s0.5 41 0.5 57
c0 12.667 3.16699 22.334 9.5 29.001s13.666 10.834 21.999 12.501s16.666 1.16699 24.999 -1.5s14.833 -7 19.5 -13c-4 -12 -6.66699 -31.5 -8 -58.5s-1.83301 -56.5 -1.5 -88.5s0.833008 -64.167 1.5 -96.5s1 -59.5 1 -81.5c33.333 -11.333 65.333 -24.5 96 -39.5
s59 -34.5 85 -58.5c-0.666992 76.667 0.5 152.834 3.5 228.501s4.83301 151.834 5.5 228.501c0 14.667 2.5 25.667 7.5 33s11 11.666 18 12.999s14.667 0.5 23 -2.5s15.5 -7.5 21.5 -13.5z" />
    <glyph glyph-name="I" unicode="I" horiz-adv-x="309" 
d="M188 25c6.66699 0.666992 14.833 1.16895 24.5 1.50195l29.5 1c10 0.333008 19.333 0.833008 28 1.5s15 1.66699 19 3c0 -4 -0.166992 -8.66699 -0.5 -14s-1.83301 -10.5 -4.5 -15.5s-6.5 -9 -11.5 -12s-12.5 -4.16699 -22.5 -3.5
c-19.333 1.33301 -40.833 1.66602 -64.5 0.999023s-46 -2 -67 -4s-39.333 -4.33301 -55 -7s-25.167 -5.33398 -28.5 -8.00098c-6 4.66699 -9 11.334 -9 20.001c0 8 3.16699 13.833 9.5 17.5s13.833 6.5 22.5 8.5s17.667 3.16699 27 3.5s16.666 0.833008 21.999 1.5
c-3.33301 46.667 -5.33301 92.667 -6 138s-0.666992 90.666 0 135.999s1.66699 91 3 137s3 92.667 5 140c-5.33301 -0.666992 -11.833 -1.33398 -19.5 -2.00098s-15.334 -1.66699 -23.001 -3s-15 -3 -22 -5s-12.167 -4 -15.5 -6c-2 0.666992 -4.5 2.33398 -7.5 5.00098
s-5.5 5.66699 -7.5 9s-3 7 -3 11s2 8 6 12c2.66699 2 9.83398 4.33301 21.501 7s25.5 5.16699 41.5 7.5s33.167 4.66602 51.5 6.99902s35.5 4.66602 51.5 6.99902l41.5 6c11.667 1.66699 18.834 3.5 21.501 5.5c5.33301 0 10 -2.16699 14 -6.5s6 -10.166 6 -17.499
c0 -5.33301 -3.66699 -9.66602 -11 -12.999s-15.833 -6 -25.5 -8s-19 -3.5 -28 -4.5s-15.5 -1.5 -19.5 -1.5c2 -32 2.66699 -71 2 -117s-1.5 -94.5 -2.5 -145.5s-1.33301 -102.167 -1 -153.5s2.83301 -98 7.5 -140z" />
    <glyph glyph-name="J" unicode="J" horiz-adv-x="318" 
d="M281 638c6 -14 7.83496 -24.166 5.50195 -30.499s-7 -10.5 -14 -12.5s-15.667 -2.83301 -26 -2.5s-20.5 0.5 -30.5 0.5c26 -105.333 44 -214.333 54 -327s15 -223.667 15 -333c0 -14.667 -0.833008 -31 -2.5 -49s-5.33398 -35 -11.001 -51s-14.167 -29.333 -25.5 -40
s-27 -16 -47 -16c-22.667 0 -43 7 -61 21s-33.667 32.333 -47 55s-24.666 48.167 -33.999 76.5s-17 56.5 -23 84.5s-10.333 54.667 -13 80s-4 46.666 -4 63.999c0 16.667 1.33301 35.834 4 57.501s8 42 16 61s19 35.167 33 48.5s32 20 54 20c4 0 9.33301 -1.33301 16 -4
s10 -6.66699 10 -12c-22 -6.66699 -38 -24 -48 -52s-15.667 -61.167 -17 -99.5s1.16699 -78.833 7.5 -121.5s14.666 -81.667 24.999 -117s22 -64.333 35 -87s25.833 -33.334 38.5 -32.001c8 0.666992 14 11.5 18 32.5s6.16699 48.333 6.5 82s-0.666992 72.167 -3 115.5
s-5.5 87.833 -9.5 133.5s-8.66699 91 -14 136s-11 86 -17 123s-11.667 68.5 -17 94.5s-10 43 -14 51c-4 0 -12.167 -0.166992 -24.5 -0.5s-25.5 -0.666016 -39.5 -0.999023s-27.333 -0.833008 -40 -1.5s-21 -1.33398 -25 -2.00098c-4 12 -2.83301 22 3.5 30s12.5 12 18.5 12
c18.667 0 40 0.333008 64 1s47.667 1.5 71 2.5s45.166 2.33301 65.499 4s35.833 3.5 46.5 5.5z" />
    <glyph glyph-name="K" unicode="K" horiz-adv-x="411" 
d="M131 272c15.333 -13.333 30.335 -31.5029 45.002 -54.5029s29.334 -47.5 44.001 -73.5l44 -78.5c14.667 -26.333 29.5 -50.333 44.5 -72s30.167 -39.167 45.5 -52.5s31 -20 47 -20c0 -15.333 -4.5 -27.5 -13.5 -36.5s-21.167 -13.5 -36.5 -13.5
c-16.667 0 -33.334 7.5 -50.001 22.5s-33.167 34.333 -49.5 58s-32 49.834 -47 78.501l-43.5 84l-39.5 75.5c-12.333 23 -23.5 40.5 -33.5 52.5c0.666992 -18.667 0.5 -41.167 -0.5 -67.5s-1.16699 -52 -0.5 -77s3 -47.167 7 -66.5s11.333 -31.666 22 -36.999l-2.5 -6
c-1.66699 -4 -4.5 -8.16699 -8.5 -12.5s-9.16699 -8.33301 -15.5 -12s-13.833 -5.5 -22.5 -5.5c-16.667 0 -29.167 10.5 -37.5 31.5s-13.833 47.667 -16.5 80s-3.16699 67.833 -1.5 106.5s4 75.667 7 111l8 93c2.33301 26.667 3.16602 44.334 2.49902 53.001
c-2 6.66699 -3.83301 13.167 -5.5 19.5s-2.5 13.166 -2.5 20.499c0 6.66699 1.5 18.167 4.5 34.5s6.83301 33.166 11.5 50.499s10.167 32.833 16.5 46.5s13.166 20.834 20.499 21.501c13.333 0.666992 23 -0.666016 29 -3.99902s11.333 -7.33301 16 -12
c-5.33301 -8 -9.66602 -23.333 -12.999 -46s-6.16602 -48.5 -8.49902 -77.5s-4 -58.833 -5 -89.5s-1.5 -58 -1.5 -82c13.333 4 27.666 12.333 42.999 25s30.666 27.5 45.999 44.5s30.333 35.333 45 55s28 38.334 40 56.001l31 47c8.66699 13.667 15 23.167 19 28.5
c2.66699 4.66699 5.16699 9.5 7.5 14.5s5 9.83301 8 14.5s6.5 8.5 10.5 11.5s9.33301 4.5 16 4.5c6 0 12 -1.33301 18 -4s9 -7.66699 9 -15c0 -9.33301 -5 -23.166 -15 -41.499s-22.833 -38.833 -38.5 -61.5s-33.167 -46 -52.5 -70s-38.5 -46.333 -57.5 -67
s-36.5 -38.834 -52.5 -54.501s-28.333 -25.834 -37 -30.501z" />
    <glyph glyph-name="L" unicode="L" horiz-adv-x="444" 
d="M429 47c0 -7.33301 -0.334961 -14.1729 -1.00195 -20.5059s-2.5 -12.166 -5.5 -17.499s-7.66699 -10 -14 -14s-15.5 -7 -27.5 -9c-8.66699 -1.33301 -21.167 -1.33301 -37.5 0s-34.166 3.33301 -53.499 6l-59 8.5c-20 3 -37.667 5.5 -53 7.5
c-6.66699 -17.333 -19.167 -30.166 -37.5 -38.499s-37.166 -12.333 -56.499 -12s-36.5 4.83301 -51.5 13.5s-22.5 21.334 -22.5 38.001c0 10 4.33301 18.167 13 24.5s19 11.333 31 15s24 6 36 7s21.333 1.16699 28 0.5c6 35.333 11.333 73.333 16 114
s8.5 81.834 11.5 123.501s5.16699 83 6.5 124s2 79.5 2 115.5c0 8.66699 -0.666992 19.667 -2 33s-1.5 26.333 -0.5 39s4 23.5 9 32.5s14.167 13.5 27.5 13.5c10.667 0 19.334 -2 26.001 -6c2.66699 -53.333 4.66699 -104.666 6 -153.999s1.33301 -98 0 -146
s-4.33301 -96.167 -9 -144.5s-11.334 -98.166 -20.001 -149.499c18 -0.666992 38.333 -1.66699 61 -3s45.334 -2.5 68.001 -3.5s43.667 -1.5 63 -1.5s34.666 1.33301 45.999 4zM102.998 11.9932c-16.667 0.666992 -30.668 -0.333008 -42.001 -3s-17 -6 -17 -10
c0 -2 1.83301 -3.5 5.5 -4.5s7.83398 -2 12.501 -3s9.16699 -1.66699 13.5 -2s7.5 -0.5 9.5 -0.5c5.33301 0 9.5 2.16699 12.5 6.5s4.83301 9.83301 5.5 16.5z" />
    <glyph glyph-name="M" unicode="M" horiz-adv-x="463" 
d="M433 -14c-3.33301 -7.33301 -8.16797 -13.6602 -14.501 -18.9932s-13.166 -8.66602 -20.499 -9.99902s-14.333 -0.333008 -21 3s-12 10 -16 20c-2.66699 7.33301 -6.33398 22 -11.001 44s-9.5 47.667 -14.5 77s-10 61.166 -15 95.499s-9.5 67.666 -13.5 99.999
s-7 62.166 -9 89.499s-2.33301 49 -1 65c-3.33301 -16 -8.16602 -37 -14.499 -63l-19 -82c-6.33301 -28.667 -11.833 -56.834 -16.5 -84.501s-7 -51.5 -7 -71.5c-2 -4.66699 -6 -9.66699 -12 -15s-12.833 -9.33301 -20.5 -12s-15.334 -3 -23.001 -1s-14.5 7.66699 -20.5 17
c-3.33301 5.33301 -8 15.833 -14 31.5s-12.167 32.667 -18.5 51l-17.5 52.5c-5.33301 16.667 -8.66602 28.667 -9.99902 36c-0.666992 -6.66699 -1.5 -17.667 -2.5 -33s-2.33301 -32.833 -4 -52.5l-5.5 -62.5l-6 -64.5c-2 -21 -4.33301 -40 -7 -57s-5 -30.5 -7 -40.5
c-1.33301 -7.33301 -5.16602 -12 -11.499 -14s-13 -2 -20 0s-13.5 5.5 -19.5 10.5s-9.66699 10.167 -11 15.5c4 16 8.33301 38 13 66s9.5 59.5 14.5 94.5s9.66699 72 14 111s7.66602 77.5 9.99902 115.5s3.66602 74 3.99902 108s-1.16699 63.667 -4.5 89
c6.66699 3.33301 14.834 5.66602 24.501 6.99902s18.834 1.16602 27.501 -0.500977s16 -5.16699 22 -10.5s9 -13 9 -23c0 -20 1.83301 -44.167 5.5 -72.5s8.5 -57.5 14.5 -87.5s12.5 -59 19.5 -87s13.5 -52 19.5 -72c4 13.333 8.5 32.166 13.5 56.499l16.5 79
c6 28.333 12.5 57.5 19.5 87.5s14 57.5 21 82.5s14.167 46.333 21.5 64s14.666 28.5 21.999 32.5c6.66699 3.33301 13 4.83301 19 4.5s11.333 -1.66602 16 -3.99902s8.5 -5.16602 11.5 -8.49902s4.5 -6 4.5 -8c-1.33301 -31.333 -1.16602 -66.833 0.500977 -106.5
s4 -80.834 7 -123.501s6.83301 -85.334 11.5 -128.001s9.5 -82.834 14.5 -120.501s10.167 -71.5 15.5 -101.5s10.666 -53.333 15.999 -70z" />
    <glyph glyph-name="N" unicode="N" horiz-adv-x="402" 
d="M115 575c20.667 -85.333 47.3291 -168.498 79.9961 -249.498s68 -160.833 106 -239.5c8 35.333 11.667 72 11 110s-1 75 -1 111c0 14.667 -0.333008 36.667 -1 66s-1 59.5 -1 90.5s0.333008 59.5 1 85.5s2 43.333 4 52c1.33301 6 4.83301 11 10.5 15s11.667 6.66699 18 8
s12.333 1 18 -1s9.5 -6 11.5 -12c-2 -11.333 -3.5 -31.666 -4.5 -60.999s-1.5 -62.333 -1.5 -99v-112.5v-101.5c0 -9.33301 0.166992 -21.833 0.5 -37.5s0.166016 -32.5 -0.500977 -50.5s-2.16699 -36.167 -4.5 -54.5s-6.16602 -35 -11.499 -50s-12.5 -27.167 -21.5 -36.5
s-20.5 -14 -34.5 -14c-12.667 0 -26 7.83301 -40 23.5s-28.167 35.5 -42.5 59.5s-28.166 50.833 -41.499 80.5l-37.5 86c-11.667 27.667 -21.667 53 -30 76l-18.5 51.5c-2.66699 -14 -4.83398 -33 -6.50098 -57s-3.16699 -49.833 -4.5 -77.5s-2.16602 -55.5 -2.49902 -83.5
s0.166992 -53.5 1.5 -76.5s3.5 -41.833 6.5 -56.5s7.16699 -22 12.5 -22c-0.666992 -2 -1.16699 -4.83301 -1.5 -8.5s-1.5 -7.5 -3.5 -11.5s-4.66699 -7.5 -8 -10.5s-8.33301 -4.83301 -15 -5.5c-11.333 -0.666992 -19.833 2.16602 -25.5 8.49902
s-9.66699 14.166 -12 23.499s-3.66602 19.166 -3.99902 29.499s-0.5 19.5 -0.5 27.5c0 33.333 1.33301 69.5 4 108.5s5.83398 78.333 9.50098 118s6.83398 79 9.50098 118s4 75.167 4 108.5c0 11.333 -2 22.5 -6 33.5s-6 22.167 -6 33.5c0 9.33301 4.33301 16.166 13 20.499
s16.667 6.5 24 6.5c4 0 8.33301 -0.333008 13 -1s9.16699 -1.66699 13.5 -3s8 -3.66602 11 -6.99902s4.5 -7.33301 4.5 -12z" />
    <glyph glyph-name="O" unicode="O" horiz-adv-x="487" 
d="M292 590c26.667 0 50.3389 -5.33691 71.0059 -16.0039s38 -24.667 52 -42s24.5 -37.5 31.5 -60.5s10.5 -46.833 10.5 -71.5c0 -24 -3.16699 -51.5 -9.5 -82.5s-15.5 -62.5 -27.5 -94.5s-26.5 -63.333 -43.5 -94s-36.333 -58 -58 -82s-45.334 -43.333 -71.001 -58
s-52.834 -22 -81.501 -22c-34.667 0 -62.334 9.33301 -83.001 28s-36.334 41.834 -47.001 69.501s-17.667 57.5 -21 89.5s-5 61 -5 87c0 17.333 1.16699 39.166 3.5 65.499s6.16602 54 11.499 83s12.5 58.167 21.5 87.5s20.333 55.5 34 78.5s29.5 41.833 47.5 56.5
s39 22 63 22c11.333 0 19.166 -3.16699 23.499 -9.5s5.5 -12.833 3.5 -19.5s-7.16699 -12.334 -15.5 -17.001s-18.833 -5.33398 -31.5 -2.00098c-18 -19.333 -33 -43.166 -45 -71.499s-21.667 -58 -29 -89s-12.5 -62.167 -15.5 -93.5s-4.5 -59.666 -4.5 -84.999
c0 -8 0.5 -19.667 1.5 -35s2.83301 -32 5.5 -50s6 -36.333 10 -55s9.33301 -35.5 16 -50.5s14.334 -27.333 23.001 -37s18.667 -14.5 30 -14.5c20 0 39.333 7.33301 58 22s36.167 33.834 52.5 57.501s31.166 50.167 44.499 79.5s24.666 58.5 33.999 87.5
s16.666 56.333 21.999 82s8 46.834 8 63.501c0 12 -1.66699 26.833 -5 44.5s-8.66602 34.834 -15.999 51.501s-16.666 30.834 -27.999 42.501s-24.666 17.5 -39.999 17.5c-17.333 0 -32.5 -7.66699 -45.5 -23s-23.5 -33.5 -31.5 -54.5s-13.833 -42.167 -17.5 -63.5
s-4.83398 -38.333 -3.50098 -51c-4 -4 -9.5 -7.33301 -16.5 -10s-14 -3.66699 -21 -3s-13.167 3.83398 -18.5 9.50098s-8 15.5 -8 29.5c0 22.667 3.5 46.167 10.5 70.5s17.333 46.166 31 65.499s30.5 35.333 50.5 48s43 19 69 19z" />
    <glyph glyph-name="P" unicode="P" horiz-adv-x="454" 
d="M168 663c32.667 0 65.332 -3.99902 97.999 -11.999s62.167 -20.833 88.5 -38.5s47.833 -40.167 64.5 -67.5s25 -60 25 -98c0 -34 -5.66699 -67.167 -17 -99.5s-27.166 -61 -47.499 -86s-44.666 -45.167 -72.999 -60.5s-59.5 -23 -93.5 -23c-16.667 0 -34 2.66699 -52 8
c0 -12.667 0.166992 -30.5 0.5 -53.5s1.16602 -46.5 2.49902 -70.5s3.16602 -46.5 5.49902 -67.5s5.5 -35.5 9.5 -43.5c-5.33301 -6.66699 -13 -12.334 -23 -17.001s-19.833 -6.5 -29.5 -5.5s-18.334 5.5 -26.001 13.5s-12.167 21.333 -13.5 40
c-1.33301 15.333 -1.66602 39.833 -0.999023 73.5s1.5 71.5 2.5 113.5l3 130c1 44.667 1.83301 86 2.5 124s0.833984 69.667 0.500977 95s-1.5 39.666 -3.5 42.999c6 3.33301 13.167 6 21.5 8s16.333 2.33301 24 1s14.167 -4.5 19.5 -9.5s8 -12.5 8 -22.5
c0 -47.333 -1 -94.166 -3 -140.499s-3 -93.166 -3 -140.499c0 -11.333 2.33301 -21.666 7 -30.999s13.667 -14 27 -14c22 0 44.5 6.83301 67.5 20.5s43.667 31.667 62 54s33.333 48.166 45 77.499s17.5 60 17.5 92c0 30.667 -5.66699 56.667 -17 78s-26.5 38.5 -45.5 51.5
s-41 22.5 -66 28.5s-51.167 9 -78.5 9c-38 0 -68.333 -5.33301 -91 -16s-38.667 -23.334 -48 -38.001c-12 2.66699 -19.667 8.5 -23 17.5s-5 16.167 -5 21.5s3.66699 11.166 11 17.499s17.833 12.333 31.5 18s30.167 10.334 49.5 14.001s41.333 5.5 66 5.5z" />
    <glyph glyph-name="Q" unicode="Q" horiz-adv-x="448" 
d="M415 378c0 -28.667 -2.66699 -61.5 -8 -98.5s-14 -73.833 -26 -110.5s-27.333 -70.5 -46 -101.5s-41.334 -54.833 -68.001 -71.5c7.33301 -8 17.333 -18 30 -30s26.167 -23.667 40.5 -35s28.166 -21 41.499 -29s24 -12 32 -12c4 -3.33301 6.33301 -7.66602 7 -12.999
s-0.5 -10.5 -3.5 -15.5s-7.5 -9.16699 -13.5 -12.5s-13.667 -4.66602 -23 -3.99902c-17.333 0.666992 -33.833 5.66699 -49.5 15s-30.5 20.5 -44.5 33.5s-27.167 26.833 -39.5 41.5l-32.5 40c-40 -4.66699 -73 1.5 -99 18.5s-46.667 39.667 -62 68s-26 60.166 -32 95.499
s-9 69 -9 101c0 17.333 1 39.333 3 66s5.5 55 10.5 85s11.833 60.167 20.5 90.5s19.5 57.5 32.5 81.5s28.667 43.667 47 59s39.833 23 64.5 23c6.66699 0 14.167 -1 22.5 -3s16 -5.16699 23 -9.5s12.833 -9.66602 17.5 -15.999s7 -13.5 7 -21.5
c0 -8.66699 -2.5 -16.5 -7.5 -23.5s-11.833 -10.5 -20.5 -10.5c-5.33301 0 -10.166 1.16699 -14.499 3.5s-6.5 6.5 -6.5 12.5c0 2.66699 0.333008 6 1 10s1 7.66699 1 11s-1 6.33301 -3 9s-5.66699 4 -11 4c-12.667 0 -24.167 -5.83301 -34.5 -17.5s-19.666 -27 -27.999 -46
s-15.5 -40.833 -21.5 -65.5s-11 -50 -15 -76s-7 -51.833 -9 -77.5s-3 -49.167 -3 -70.5c0 -31.333 1.33301 -61.666 4 -90.999s7.66699 -56 15 -80s17 -44.167 29 -60.5s27.667 -26.833 47 -31.5l-14 17c-5.33301 6.66699 -10.5 13.667 -15.5 21
s-9.16699 14.666 -12.5 21.999s-5 14.333 -5 21c0 7.33301 3.5 14.333 10.5 21s13.833 10 20.5 10c12 -19.333 23 -34.833 33 -46.5l31 -37.5c20 20 37.167 45 51.5 75s26.333 61.667 36 95s16.667 66.833 21 100.5s6.5 64.167 6.5 91.5c0 22.667 -1.33301 46.667 -4 72
s-8 49.666 -16 72.999s-19.333 44.833 -34 64.5s-33.667 35.167 -57 46.5c0.666992 5.33301 3.83398 8.5 9.50098 9.5s10.167 1.5 13.5 1.5c21.333 0 40.166 -5 56.499 -15s30.333 -23.167 42 -39.5s21.5 -35 29.5 -56s14.167 -42.333 18.5 -64s7.5 -42.834 9.5 -63.501
s3 -38.667 3 -54z" />
    <glyph glyph-name="R" unicode="R" horiz-adv-x="492" 
d="M382 453c0 27.333 -4.99609 51.6641 -14.9961 72.9971s-23.333 39.166 -40 53.499s-35.5 25.333 -56.5 33s-42.5 11.5 -64.5 11.5c-28 0 -51.5 -2.83301 -70.5 -8.5s-34.833 -12.5 -47.5 -20.5s-22.334 -16.667 -29.001 -26s-11.334 -17.666 -14.001 -24.999
c-13.333 5.33301 -22.5 11 -27.5 17s-7.5 12 -7.5 18c0 16 10.833 30.167 32.5 42.5s48.834 21.333 81.501 27s68.167 7.33398 106.5 5.00098s73.833 -10.333 106.5 -24s59.834 -34 81.501 -61s32.5 -61.833 32.5 -104.5c0 -36.667 -5.83301 -69.667 -17.5 -99
s-27 -55 -46 -77s-40.833 -40.333 -65.5 -55s-50 -26 -76 -34c5.33301 -6.66699 13.833 -18.834 25.5 -36.501l40.5 -59.5l49 -69c17.333 -24 34.166 -45.833 50.499 -65.5s31.333 -36 45 -49s24.834 -19.5 33.501 -19.5c4.66699 0 9.5 1.16699 14.5 3.5
s10.167 3.5 15.5 3.5c4 0 9.33301 -1.16699 16 -3.5s10 -6.16602 10 -11.499s-2.33301 -10 -7 -14s-10.334 -7.16699 -17.001 -9.5s-13.334 -4 -20.001 -5s-12 -1.5 -16 -1.5c-23.333 0 -46 7.83301 -68 23.5s-43.5 35.5 -64.5 59.5s-40.833 50 -59.5 78l-52.5 79.5
c-16.333 25 -31.5 46.333 -45.5 64s-26 28.167 -36 31.5c0 -16 0.166992 -34.333 0.5 -55s1 -41 2 -61s2.5 -38 4.5 -54s4.66699 -27 8 -33l-12.5 -10.5c-4.33301 -3.66699 -9.33301 -6.66699 -15 -9s-11.834 -3.5 -18.501 -3.5s-14.334 2.66699 -23.001 8
s-14.667 20.333 -18 45s-5 54.334 -5 89.001s1 72.167 3 112.5l6 115.5c2 36.667 3.66699 69 5 97s1 47 -1 57c16 10.667 31.5 12.834 46.5 6.50098s22.5 -21.166 22.5 -44.499c0 -6 -0.5 -17 -1.5 -33s-2 -33 -3 -51s-1.83301 -35.5 -2.5 -52.5s-1 -29.5 -1 -37.5
c3.33301 -7.33301 11 -15.5 23 -24.5s26.333 -13.5 43 -13.5c20.667 0 40.5 5 59.5 15s35.833 24.167 50.5 42.5s26.5 40.166 35.5 65.499s13.5 53.333 13.5 84z" />
    <glyph glyph-name="S" unicode="S" horiz-adv-x="488" 
d="M240 266c16.667 0 37.498 -0.665039 62.498 -1.99805s49 -5.33301 72 -12s42.667 -17 59 -31s24.5 -33.333 24.5 -58c0 -22 -6.5 -42.5 -19.5 -61.5s-29.167 -35.5 -48.5 -49.5s-40.333 -25 -63 -33s-44 -12 -64 -12c-19.333 0 -35.666 3.66699 -48.999 11s-19 21 -17 41
c0.666992 8.66699 4.5 14 11.5 16s14.667 1.83301 23 -0.5s16.5 -6.33301 24.5 -12s13.667 -11.5 17 -17.5c11.333 2.66699 23.5 8 36.5 16s25 17.167 36 27.5s20.167 21.833 27.5 34.5s11 25.334 11 38.001c0 16 -4.66699 28.667 -14 38s-20.833 16.166 -34.5 20.499
s-28 7.16602 -43 8.49902s-28.167 2 -39.5 2c-20 0 -44 0.166992 -72 0.5s-54.667 3.66602 -80 9.99902s-46.833 17.166 -64.5 32.499s-26.5 38 -26.5 68c0 20 5.5 41.333 16.5 64s25.667 45.167 44 67.5s39.333 43.666 63 63.999s48 38.166 73 53.499
s49.5 27.666 73.5 36.999s46 14 66 14c30 0 55.333 -8.66699 76 -26s31 -41.666 31 -72.999c0 -11.333 -2.16699 -24.666 -6.5 -39.999s-10.166 -31.333 -17.499 -48s-16 -33 -26 -49s-21 -30.333 -33 -43s-24.5 -23 -37.5 -31s-26.167 -12 -39.5 -12h-9.5
c-4.33301 0 -8.66602 0.833008 -12.999 2.5s-8.5 4.5 -12.5 8.5s-6.33301 10 -7 18c20 -4 38.667 0.5 56 13.5s32.333 29.833 45 50.5s22.667 42.667 30 66s11 43 11 59c0 7.33301 -1 15.166 -3 23.499s-5 16 -9 23s-9.16699 12.667 -15.5 17s-13.833 6.5 -22.5 6.5
c-13.333 0 -29 -4.5 -47 -13.5s-36.333 -20.667 -55 -35s-37 -30.833 -55 -49.5s-34 -37.667 -48 -57s-25.333 -38.166 -34 -56.499s-13 -34.5 -13 -48.5c0 -22 5 -38.667 15 -50s22.333 -19.166 37 -23.499s30.667 -6.66602 48 -6.99902s33.666 -0.5 48.999 -0.5z" />
    <glyph glyph-name="T" unicode="T" horiz-adv-x="490" 
d="M334 -45c4 -4.66699 7.16895 -8.5 9.50195 -11.5s3.5 -7.83301 3.5 -14.5c0 -4.66699 -1.83301 -8.66699 -5.5 -12s-8 -6 -13 -8s-10.167 -3.5 -15.5 -4.5s-10 -1.5 -14 -1.5c-4.66699 0 -9.33398 0.333008 -14.001 1s-9 2 -13 4c-6 2.66699 -11 9 -15 19
s-7.33301 21.667 -10 35s-4.5 27.833 -5.5 43.5s-1.83301 31 -2.5 46s-1 28.5 -1 40.5v28c0 8 0.166992 24 0.5 48s0.833008 51.5 1.5 82.5s1.5 63.833 2.5 98.5s2.5 66.667 4.5 96s4 54.333 6 75s4.66699 33 8 37c4.66699 6 10 9.83301 16 11.5s12.167 2 18.5 1
s12.166 -3 17.499 -6s9.66602 -5.83301 12.999 -8.5c-4 -12 -7 -30.5 -9 -55.5s-3.16699 -52.5 -3.5 -82.5s-0.333008 -60.833 0 -92.5s0.5 -60.167 0.5 -85.5v-32.5c0 -15.667 0.333008 -33.834 1 -54.501l2 -64.5c0.666992 -22.333 1.83398 -43 3.50098 -62
s3.5 -35.167 5.5 -48.5s4.66699 -20.666 8 -21.999zM607.002 653c9.33301 0 16.332 -1.66797 20.999 -5.00098s7.83398 -7.5 9.50098 -12.5s1.83398 -10.333 0.500977 -16s-3.33301 -10.834 -6 -15.501c-26.667 0 -58.834 -1 -96.501 -3s-77.334 -4.5 -119.001 -7.5
s-83.667 -6.5 -126 -10.5l-117.5 -11.5c-36 -3.66699 -67.167 -7.16699 -93.5 -10.5s-44.5 -6 -54.5 -8c-10 11.333 -14.667 20.833 -14 28.5s8.33398 12.834 23.001 15.501c22 4 48.333 8 79 12s63.5 8 98.5 12s71.333 7.83301 109 11.5s74 6.83398 109 9.50098
s67.833 5 98.5 7s57 3.33301 79 4z" />
    <glyph glyph-name="U" unicode="U" horiz-adv-x="446" 
d="M375 629c10.667 0 18.8379 -3.50098 24.5049 -10.501s9.66699 -15.5 12 -25.5s3.5 -20.5 3.5 -31.5v-28.5c0 -24.667 -1.5 -55 -4.5 -91s-8 -73.833 -15 -113.5s-16.5 -79 -28.5 -118s-27.167 -74 -45.5 -105s-40.166 -56.167 -65.499 -75.5s-55 -29 -89 -29
c-24.667 0 -45.834 5.16699 -63.501 15.5s-32.334 24 -44.001 41s-20.834 36.5 -27.501 58.5s-11.667 44.5 -15 67.5s-5.33301 45.833 -6 68.5s-1 43 -1 61c0 8.66699 0.166992 21.834 0.5 39.501s1.16602 37.334 2.49902 59.001s3.33301 44 6 67s6.66699 43.833 12 62.5
s12 34 20 46s17.667 18 29 18c6 0 12 -0.5 18 -1.5s11.667 -6.16699 17 -15.5c-12.667 -40 -20.667 -82 -24 -126s-5 -90 -5 -138c0 -8.66699 0.333008 -21.667 1 -39s2.16699 -36.5 4.5 -57.5s5.5 -42.5 9.5 -64.5s9.16699 -42.167 15.5 -60.5s14 -33.333 23 -45
s19.833 -17.5 32.5 -17.5c21.333 0 40.666 10 57.999 30s32.833 45.833 46.5 77.5s25.667 66.667 36 105s18.833 75.666 25.5 111.999s11.667 69.833 15 100.5s5 53.667 5 69c0 14.667 -0.833008 30.5 -2.5 47.5s-4.16699 29.167 -7.5 36.5c0 4.66699 3.66699 7.66699 11 9
s12.666 2 15.999 2z" />
    <glyph glyph-name="V" unicode="V" horiz-adv-x="338" 
d="M281 635c6.66699 0 12.998 -1.49707 18.998 -4.49707s8.33301 -8.5 7 -16.5c-2 -20 -5.33301 -48.833 -10 -86.5s-10.167 -79.5 -16.5 -125.5s-13.5 -93.5 -21.5 -142.5s-16.333 -94.833 -25 -137.5s-17.667 -79.5 -27 -110.5s-18.333 -51.167 -27 -60.5
c-5.33301 -6 -14.166 -8 -26.499 -6s-22.166 5.66699 -29.499 11c-11.333 8.66699 -22.166 28 -32.499 58s-19.666 65.5 -27.999 106.5s-15.833 85.167 -22.5 132.5s-12.334 92.666 -17.001 135.999s-8.16699 82 -10.5 116s-3.5 58.667 -3.5 74c0 12.667 2 24 6 34
s13.667 15 29 15c5.33301 0 12.666 -0.166992 21.999 -0.5s16.666 -1.5 21.999 -3.5c-2.66699 -8 -4 -23.333 -4 -46s1.16699 -50.167 3.5 -82.5s5.83301 -67.666 10.5 -105.999s10.334 -77.333 17.001 -117s14 -78.167 22 -115.5s17 -71 27 -101
c10 29.333 19.167 63.166 27.5 101.499s15.833 77.666 22.5 117.999s12.5 80.166 17.5 119.499s9.16699 75 12.5 107s5.83301 58.667 7.5 80s2.5 34 2.5 38c2 6 5.33301 10 10 12s10 3 16 3z" />
    <glyph glyph-name="W" unicode="W" horiz-adv-x="523" 
d="M463 690c1.33301 0 3.67285 -0.333008 7.00586 -1s6.66602 -1.5 9.99902 -2.5s6.33301 -2.33301 9 -4s4 -3.5 4 -5.5c-4 -7.33301 -7.83301 -22 -11.5 -44s-7.16699 -46.167 -10.5 -72.5s-6.16602 -52.833 -8.49902 -79.5l-5.5 -64
c-4.66699 -56.667 -7.5 -113.167 -8.5 -169.5s-2.16699 -112.833 -3.5 -169.5c0 -15.333 0.166992 -29 0.5 -41s-1 -22.167 -4 -30.5s-8.83301 -14.666 -17.5 -18.999s-21.667 -6.83301 -39 -7.5c-15.333 1.33301 -29.333 11.5 -42 30.5s-24.334 43 -35.001 72
s-20 61 -28 96s-15 69 -21 102s-10.833 63 -14.5 90s-6.5 47.167 -8.5 60.5c-2 -8 -3.83301 -24.667 -5.5 -50s-3.83398 -54.333 -6.50098 -87s-5.83398 -67.167 -9.50098 -103.5s-8.83398 -69.5 -15.501 -99.5s-14.667 -54.833 -24 -74.5s-20.666 -29.5 -33.999 -29.5
c-24 0 -44 12 -60 36s-28.833 54.833 -38.5 92.5s-16.667 79.5 -21 125.5s-7.33301 90.5 -9 133.5s-2.33398 82.167 -2.00098 117.5s0.5 61.333 0.5 78c0 9.33301 3.83301 16 11.5 20s15.5 6 23.5 6c15.333 0 25.666 -3.5 30.999 -10.5s8 -17.833 8 -32.5
c0 -38 0.333008 -78.667 1 -122s3 -86.833 7 -130.5s10.5 -86.334 19.5 -128.001s21.833 -79.834 38.5 -114.501l12 136c4 45.333 8.66699 90.333 14 135s11.833 89.334 19.5 134.001s17.834 89 30.501 133c2.66699 8.66699 8 14.334 16 17.001s15.667 4 23 4
c10 0 17.667 -1.83301 23 -5.5s8.66602 -10.5 9.99902 -20.5c3.33301 -34 8 -74.833 14 -122.5s13 -96.334 21 -146.001s17.167 -97.5 27.5 -143.5s21.833 -84 34.5 -114c-2.66699 98 -2.83398 197.167 -0.500977 297.5s13.5 198.833 33.5 295.5
c2 10.667 5.16699 18.667 9.5 24s12.5 8 24.5 8z" />
    <glyph glyph-name="X" unicode="X" horiz-adv-x="435" 
d="M10 0c0.666992 1.33301 0.837891 1.16309 0.504883 -0.503906s-0.5 -1.83398 -0.5 -0.500977c6 10.667 15.333 28.5 28 53.5l41.5 85l45.5 98.5c15.333 34 28.666 65.333 39.999 94l-15 30l-25.5 51l-31 60.5l-31.5 59l-26 46.5c-7.33301 12.667 -12.333 20 -15 22
c6.66699 6 15 10.667 25 14s18 3.66602 24 0.999023c7.33301 -3.33301 15.666 -10.333 24.999 -21s19 -23.167 29 -37.5s19.667 -29.333 29 -45s17.666 -30.5 24.999 -44.5l18.5 -35.5c5 -9.66699 8.16699 -15.5 9.5 -17.5l17.5 31l25.5 42.5
c9.33301 15 19.333 30.167 30 45.5s21.667 29.333 33 42s22.166 23 32.499 31s20.166 12 29.499 12c5.33301 0 10.333 -0.666992 15 -2s8.66699 -4.33301 12 -9c-4 -3.33301 -10.333 -10.666 -19 -21.999l-29.5 -40l-34.5 -50l-34 -53
c-10.667 -17.333 -20.167 -33.666 -28.5 -48.999s-14.166 -27.666 -17.499 -36.999l25 -57l35 -77l39 -83.5l37.5 -78c11.667 -23.667 22 -43.167 31 -58.5s15.5 -24 19.5 -26c-1.33301 -6.66699 -5.5 -12.667 -12.5 -18s-15 -8.66602 -24 -9.99902
s-18.5 0.166992 -28.5 4.5s-19 12.5 -27 24.5c-4 6 -9.5 15.833 -16.5 29.5s-14.5 29.334 -22.5 47.001l-25.5 56l-25.5 58l-22 52.5l-16 39c-3.33301 -7.33301 -8.33301 -19.166 -15 -35.499l-23.5 -55l-29 -63c-10.333 -21.667 -20.5 -41.5 -30.5 -59.5
s-19.667 -33 -29 -45s-17.333 -18.333 -24 -19c-11.333 -1.33301 -20.833 0 -28.5 4s-12.834 8.66699 -15.501 14v1z" />
    <glyph glyph-name="Y" unicode="Y" horiz-adv-x="352" 
d="M182 -102c-30 0 -50.002 7.49902 -60.002 22.499s-12 30.5 -6 46.5c0.666992 -2 3 -4.33301 7 -7s9.16699 -5 15.5 -7s13.5 -3.16699 21.5 -3.5s17 0.833984 27 3.50098c12 3.33301 21.833 13.5 29.5 30.5s13.667 38 18 63s7.33301 52.667 9 83s2.66699 61.166 3 92.499
s-0.166992 61.666 -1.5 90.999s-2.33301 55 -3 77l-10 -43c-4 -17.333 -8.5 -35.333 -13.5 -54s-10.833 -37.5 -17.5 -56.5s-14.667 -36.167 -24 -51.5s-20.166 -27.666 -32.499 -36.999s-26.166 -14 -41.499 -14c-21.333 0 -38.5 9.33301 -51.5 28s-22.667 42.167 -29 70.5
s-10 59.5 -11 93.5s-0.833008 66.5 0.5 97.5s3.16602 58.333 5.49902 82s4.16602 39.5 5.49902 47.5c2 13.333 5.5 22.5 10.5 27.5s10.5 7.66699 16.5 8s11.833 -0.666992 17.5 -3s10.5 -4.16602 14.5 -5.49902c-3.33301 -16.667 -6.16602 -38.167 -8.49902 -64.5
s-3.66602 -54.5 -3.99902 -84.5s0 -60 1 -90s3.16699 -57 6.5 -81s7.5 -43.5 12.5 -58.5s11.167 -22.167 18.5 -21.5c9.33301 0.666992 18.666 8.66699 27.999 24s18.5 35.5 27.5 60.5s17.333 53 25 84s14.334 62 20.001 93s10.167 60.5 13.5 88.5s5 51.667 5 71
c0 12.667 4 21.5 12 26.5s17 7.66699 27 8s19.833 -1 29.5 -4s16.167 -5.83301 19.5 -8.5c-2.66699 -6 -4.33398 -17.5 -5.00098 -34.5s-0.666992 -37.167 0 -60.5s1.5 -48.833 2.5 -76.5s2.16699 -55.334 3.5 -83.001s2.5 -54.334 3.5 -80.001s1.5 -48.167 1.5 -67.5
c0 -16.667 -0.166992 -36.167 -0.5 -58.5s-1.83301 -45.5 -4.5 -69.5s-6.66699 -47.667 -12 -71s-13.166 -44.166 -23.499 -62.499s-23.5 -33.166 -39.5 -44.499s-35.667 -17 -59 -17z" />
    <glyph glyph-name="Z" unicode="Z" horiz-adv-x="424" 
d="M413 595c-3.33301 -7.33301 -12.1689 -22 -26.502 -44l-51.5 -80l-65 -103l-67 -111.5c-21.333 -37 -40.333 -72.667 -57 -107s-28.334 -64.166 -35.001 -89.499l-6 -25.5c-2 -8.33301 -3.66699 -16.833 -5 -25.5c23.333 -1.33301 48.5 -2.5 75.5 -3.5
s53.333 -1.5 79 -1.5s49.5 1 71.5 3s39.667 5.66699 53 11c0 -6 0.5 -12.833 1.5 -20.5s1.33301 -15 1 -22s-2 -12.833 -5 -17.5s-8.5 -6.66699 -16.5 -6c-24 1.33301 -49.167 2.16602 -75.5 2.49902s-53 0.5 -80 0.5s-53.5 -0.166992 -79.5 -0.5s-50.667 -0.5 -74 -0.5
c-3.33301 0 -7.16602 0.333008 -11.499 1s-8.83301 1.66699 -13.5 3s-8.5 3.5 -11.5 6.5s-4.5 6.5 -4.5 10.5c0 30 5.5 62.833 16.5 98.5s25.5 72.5 43.5 110.5s38.667 76.333 62 115l70.5 111.5l69.5 100l60 81.5c-23.333 0.666992 -49.333 0.5 -78 -0.5s-56 -3 -82 -6
s-49.167 -6.83301 -69.5 -11.5s-33.5 -10.334 -39.5 -17.001c-6 1.33301 -11.5 5 -16.5 11s-7.16699 12.5 -6.5 19.5s4.83398 13.333 12.501 19s20.834 9.16699 39.501 10.5c53.333 5.33301 102.833 9 148.5 11s93.167 3 142.5 3c2.66699 0 6 -1.16699 10 -3.5
s7.66699 -5.33301 11 -9s6 -7.66699 8 -12s2.33301 -8.16602 1 -11.499z" />
    <glyph glyph-name="bracketleft" unicode="[" horiz-adv-x="283" 
d="M159 -75c4.66699 0 12.166 0.330078 22.499 0.99707s20.833 0.666992 31.5 0s20 -2.5 28 -5.5s12 -7.83301 12 -14.5c0 -5.33301 -1.83301 -9.33301 -5.5 -12s-8 -4.5 -13 -5.5s-10.167 -1.66699 -15.5 -2s-9.66602 -0.5 -12.999 -0.5
c-9.33301 0 -19.833 -0.166992 -31.5 -0.5s-23.5 0 -35.5 1s-23 3.16699 -33 6.5s-18 8.33301 -24 15c-4.66699 6 -8.83398 18.167 -12.501 36.5s-6.66699 39.833 -9 64.5s-4.16602 51.334 -5.49902 80.001s-2.33301 56 -3 82s-1.16699 49.167 -1.5 69.5
s-0.5 35.166 -0.5 44.499c0 52 0.666992 103.333 2 154l4 154c0 5.33301 -0.333008 11.5 -1 18.5s-0.833984 13.833 -0.500977 20.5s1.83301 12.834 4.5 18.501s7.33398 9.5 14.001 11.5c4 1.33301 10.833 2.5 20.5 3.5s20.167 1.83301 31.5 2.5s22 1.16699 32 1.5
s17.667 0.5 23 0.5c3.33301 0 9 -0.333008 17 -1s16 -1.83398 24 -3.50098s15.167 -4 21.5 -7s9.5 -6.83301 9.5 -11.5c0 -5.33301 -4 -9.16602 -12 -11.499s-14 -3.5 -18 -3.5c-6 0 -11.833 0.833008 -17.5 2.5s-11.5 2.5 -17.5 2.5c-10 0 -19.833 -0.5 -29.5 -1.5
s-19.5 -2.16699 -29.5 -3.5c0.666992 -50 0.666992 -100 0 -150s-1 -100 -1 -150c0 -62 1 -123.667 3 -185s7 -122.666 15 -183.999c0 -2 0.166992 -5.16699 0.5 -9.5s1 -8.66602 2 -12.999s2.33301 -8 4 -11s4.16699 -4.5 7.5 -4.5z" />
    <glyph glyph-name="backslash" unicode="\" horiz-adv-x="418" 
d="M31 626c-1.33301 4 0 7.00098 4 9.00098s8.66699 3.5 14 4.5s10.833 1.33301 16.5 1s9.5 -0.833008 11.5 -1.5c10 -4 17.667 -11.333 23 -22s10.666 -20.667 15.999 -30l44 -88l42 -89l85 -181.5l86 -181.5c2 -4.66699 5 -10 9 -16s5.66699 -11.667 5 -17
c-0.666992 -6 -4 -10.167 -10 -12.5s-11.333 -3.83301 -16 -4.5c-17.333 -2.66699 -29.666 0.166016 -36.999 8.49902s-14.333 19.5 -21 33.5l-84 180l-84 184.5l-86 183.5l-10 19.5c-3.33301 6.33301 -6 12.833 -8 19.5z" />
    <glyph glyph-name="bracketright" unicode="]" horiz-adv-x="294" 
d="M180 678c5.33301 0 10.3311 -0.169922 14.998 -0.50293s9.33398 -1.16602 14.001 -2.49902c6.66699 -2 11.834 -5.83301 15.501 -11.5s6.16699 -12.167 7.5 -19.5s2 -14.666 2 -21.999s0.333008 -14 1 -20c8 -99.333 10.667 -198.5 8 -297.5s-4 -198.167 -4 -297.5
c0 -36 -1.5 -62.167 -4.5 -78.5s-9.5 -27.333 -19.5 -33s-24.5 -7.66699 -43.5 -6s-44.833 2.5 -77.5 2.5c-2.66699 0 -7.5 0.166992 -14.5 0.5s-14.167 1.16602 -21.5 2.49902s-13.833 3.16602 -19.5 5.49902s-8.5 5.5 -8.5 9.5c0 4.66699 2 8.33398 6 11.001
s8.66699 4.83398 14 6.50098s10.833 2.83398 16.5 3.50098s10.167 1 13.5 1c15.333 0 28 -0.333008 38 -1s22.667 -0.666992 38 0c2 46.667 3 93.334 3 140.001c0 34 1 68.667 3 104s3.66699 73.333 5 114s2 85.167 2 133.5s-2 102.5 -6 162.5
c0 2 -0.333008 6.16699 -1 12.5l-2 19c-0.666992 6.33301 -1.66699 12 -3 17s-3 7.5 -5 7.5c-15.333 0 -29.166 0.166992 -41.499 0.5s-25.833 0.5 -40.5 0.5c-7.33301 0 -14.833 1.16699 -22.5 3.5s-11.5 7.16602 -11.5 14.499c0 5.33301 6.5 9.33301 19.5 12
s28 4.5 45 5.5s33.167 1.33301 48.5 1s25.666 -0.5 30.999 -0.5z" />
    <glyph glyph-name="asciicircum" unicode="^" horiz-adv-x="357" 
d="M236 630c6 -22 12 -45.1699 18 -69.5029l18 -74l17.5 -74l16.5 -69.5c2 -8 -1.83301 -14 -11.5 -18s-18.5 -6 -26.5 -6c-10 0 -19.5 1.83301 -28.5 5.5s-14.5 10.834 -16.5 21.501c-7.33301 31.333 -14 62.5 -20 93.5l-18 94.5
c-8.66699 -20.667 -17.834 -41.167 -27.501 -61.5l-28.5 -61.5c-3.33301 -6.66699 -6.33301 -14.167 -9 -22.5s-6 -16.166 -10 -23.499s-8.83301 -13.5 -14.5 -18.5s-12.834 -7.5 -21.501 -7.5c-9.33301 0 -15.666 1.5 -18.999 4.5s-5 6.16699 -5 9.5
c0 4.66699 1.66699 11.334 5 20.001c15.333 41.333 31.833 81.333 49.5 120s33.167 79.667 46.5 123c2 6 3.5 12.5 4.5 19.5s2.66699 13.167 5 18.5s6 9.83301 11 13.5s12.5 5.5 22.5 5.5c8.66699 0 15.334 -1.16699 20.001 -3.5s8.5 -5.5 11.5 -9.5
s5.16699 -8.66699 6.5 -14z" />
    <glyph glyph-name="underscore" unicode="_" horiz-adv-x="410" 
d="M324 -2c8.66699 0 16.833 -1.50098 24.5 -4.50098s11.5 -10.167 11.5 -21.5c0 -4.66699 -6.5 -8.33398 -19.5 -11.001s-29.333 -4.66699 -49 -6s-41.334 -2 -65.001 -2s-46 0.166992 -67 0.5s-39.167 0.833008 -54.5 1.5s-25 1.33398 -29 2.00098
c-5.33301 0.666992 -11 2 -17 4s-9 6.33301 -9 13c0 10 3.5 16.333 10.5 19s15.167 4.33398 24.5 5.00098c7.33301 0.666992 21.5 1 42.5 1h68.5c24.667 0 48.834 -0.166992 72.501 -0.5s42.167 -0.5 55.5 -0.5z" />
    <glyph glyph-name="grave" unicode="`" horiz-adv-x="199" 
d="M150 398c4 -2.66699 4.83301 -5.99902 2.5 -9.99902s-5.83301 -7.33301 -10.5 -10c-10 -4.66699 -21.333 -4.66699 -34 0c-2.66699 1.33301 -7.33398 3.5 -14.001 6.5s-13.167 6.5 -19.5 10.5s-12 8.16699 -17 12.5s-7.16699 8.16602 -6.5 11.499c0 4 4 7.16699 12 9.5
s13.333 3.5 16 3.5c6.66699 0 12.167 -1.5 16.5 -4.5s9.16602 -6.16699 14.499 -9.5c6.66699 -4 13.334 -7.5 20.001 -10.5s13.334 -6.16699 20.001 -9.5z" />
    <glyph glyph-name="a" unicode="a" horiz-adv-x="365" 
d="M380 180c5.33301 1.33301 10.834 0.998047 16.501 -1.00195s8.5 -5.66699 8.5 -11c-1.33301 -15.333 -6.33301 -32.5 -15 -51.5s-19.667 -36.667 -33 -53s-28.5 -30.166 -45.5 -41.499s-34.167 -17 -51.5 -17c-18 0 -32.167 3.5 -42.5 10.5s-18.333 16.167 -24 27.5
s-9.66699 24 -12 38s-4.5 28 -6.5 42c-4.66699 -12 -10.5 -24.167 -17.5 -36.5s-15.333 -23.5 -25 -33.5s-20.5 -18.333 -32.5 -25s-25 -10 -39 -10c-24 0 -41 7.5 -51 22.5s-15 33.167 -15 54.5c0 18.667 3 41 9 67s14.833 51 26.5 75s26.167 44.5 43.5 61.5
s37.333 25.5 60 25.5c7.33301 0 14.166 -1.16699 20.499 -3.5s12.833 -5.16602 19.5 -8.49902c10 7.33301 21.667 11 35 11c12 0 21.667 -1.83301 29 -5.5s11 -12.5 11 -26.5c0 -19.333 -0.833008 -42.5 -2.5 -69.5s-2.5 -53.167 -2.5 -78.5s2 -46.833 6 -64.5
s12 -26.5 24 -26.5c6.66699 0 15 4.16699 25 12.5s20.167 19 30.5 32s20 26.833 29 41.5s16.167 28.667 21.5 42zM68.001 54.998c6.66699 0 13.8301 3.66895 21.4971 11.002s15.334 16.666 23.001 27.999s15 24.166 22 38.499s13.167 28.166 18.5 41.499
s9.66602 25.833 12.999 37.5s5 20.5 5 26.5v8.5c0 5.66699 -0.666992 11.834 -2 18.501s-4.16602 12.667 -8.49902 18s-10.833 8 -19.5 8c-7.33301 0 -15.666 -5.83301 -24.999 -17.5s-18.5 -26.167 -27.5 -43.5s-17.167 -36.333 -24.5 -57s-12.5 -39.667 -15.5 -57
s-3.16699 -31.833 -0.5 -43.5s9.33398 -17.5 20.001 -17.5z" />
    <glyph glyph-name="b" unicode="b" horiz-adv-x="308" 
d="M200 356c29.333 0 49.6689 -9.16602 61.002 -27.499s17 -40.5 17 -66.5c0 -20.667 -3.33301 -43.667 -10 -69s-16.5 -49 -29.5 -71s-29 -40.5 -48 -55.5s-40.833 -22.5 -65.5 -22.5c-8.66699 0 -18.667 1.66699 -30 5c0 -9.33301 0.5 -18.333 1.5 -27
s0.666992 -16.334 -1 -23.001s-5.5 -11.834 -11.5 -15.501s-16 -5.5 -30 -5.5c-12.667 0 -23.167 2.33301 -31.5 7s-12.5 14 -12.5 28v98c0 86.667 1.5 172.667 4.5 258s4.5 171.333 4.5 258c0 14.667 1.66699 25 5 31s13.666 9 30.999 9
c9.33301 0 18.166 -1.66699 26.499 -5s12.5 -10.666 12.5 -21.999v-330c13.333 14.667 29.5 26 48.5 34s38.167 12 57.5 12zM128.003 76.001c14 0 27.001 8.16895 39.001 24.502s22.5 35.5 31.5 57.5s16 44 21 66s7.5 38.667 7.5 50c0 4.66699 -0.5 10.167 -1.5 16.5
s-2.66699 12.5 -5 18.5s-5.5 11 -9.5 15s-9 6 -15 6c-16 0 -30.333 -7.16699 -43 -21.5s-23.167 -31.333 -31.5 -51s-14.833 -39.834 -19.5 -60.501s-7 -37.334 -7 -50.001v-33c0 -6.66699 3.66699 -14.667 11 -24s14.666 -14 21.999 -14z" />
    <glyph glyph-name="c" unicode="c" horiz-adv-x="306" 
d="M336 228c2.66699 0 7.5 -1.16992 14.5 -3.50293s10.167 -5.16602 9.5 -8.49902c-2 -24 -10.167 -48.5 -24.5 -73.5s-32 -47.667 -53 -68s-44 -37 -69 -50s-49.167 -19.5 -72.5 -19.5c-43.333 0 -76 12.167 -98 36.5s-33 57.5 -33 99.5c0 20.667 1.66699 44 5 70
s9.66602 50.5 18.999 73.5s22.333 42.333 39 58s38.334 23.5 65.001 23.5c19.333 0 34.666 -5.16699 45.999 -15.5s17 -25.5 17 -45.5c0 -11.333 -1.5 -21.666 -4.5 -30.999s-11.5 -14 -25.5 -14c-4 0 -9.5 0.833008 -16.5 2.5s-10.5 5.16699 -10.5 10.5
c0 4.66699 0.666992 10.334 2 17.001s2.16602 13 2.49902 19s-0.166992 11.167 -1.5 15.5s-4.66602 6.5 -9.99902 6.5c-9.33301 0 -17.333 -7.83301 -24 -23.5s-12 -34 -16 -55s-7 -42.167 -9 -63.5s-3 -37.333 -3 -48c0 -10 0.833008 -20.833 2.5 -32.5
s4.83398 -22.5 9.50098 -32.5s11 -18.333 19 -25s18.333 -10 31 -10c22 0 43.833 8.16699 65.5 24.5s41.167 35.333 58.5 57s32 42.667 44 63s19 34.5 21 42.5z" />
    <glyph glyph-name="d" unicode="d" horiz-adv-x="335" 
d="M275 292c0 -42.667 1.00488 -85.0039 3.00488 -127.004c1.33301 -22.667 3.66602 -46.667 6.99902 -72s7.5 -50.333 12.5 -75s10.667 -47.834 17 -69.501s13.166 -40.167 20.499 -55.5l-30 -13c-8 -3.33301 -18.667 -4.66602 -32 -3.99902
c-9.33301 1.33301 -17.5 8.5 -24.5 21.5s-13 28.833 -18 47.5s-9.16699 39.334 -12.5 62.001s-5.83301 44.5 -7.5 65.5s-3 40.167 -4 57.5s-1.5 30.333 -1.5 39c-4.66699 -14 -9.83398 -28.667 -15.501 -44s-12.834 -29.166 -21.501 -41.499s-19.167 -22.666 -31.5 -30.999
s-27.166 -12.5 -44.499 -12.5c-28.667 0 -49.5 9 -62.5 27s-19.5 40 -19.5 66c0 20 2.66699 42.833 8 68.5s13.5 50 24.5 73s25.167 42.5 42.5 58.5s38.333 24 63 24c9.33301 0 17.5 -0.833008 24.5 -2.5s14.5 -5.16699 22.5 -10.5c2 7.33301 4.16699 20.666 6.5 39.999
l8 66.5l9.5 79c3.33301 27.667 7 53.334 11 77.001s8 44 12 61s8.33301 27.5 13 31.5c3.33301 3.33301 7.16602 5.33301 11.499 6s8.83301 1 13.5 1c5.33301 0 11.166 -1.16699 17.499 -3.5s9.5 -6.83301 9.5 -13.5c-2.66699 -11.333 -5.83398 -32 -9.50098 -62
s-7.16699 -64.167 -10.5 -102.5s-6.16602 -78.166 -8.49902 -119.499s-3.5 -79 -3.5 -113zM94.0049 78.9961c6 0 12.3301 4.83398 18.9971 14.501s13.334 22.167 20.001 37.5s13 32.166 19 50.499l16.5 52.5c5 16.667 9.16699 31.834 12.5 45.501l7 28.5
c-4.66699 5.33301 -10 10.666 -16 15.999s-12.667 8 -20 8c-12.667 0 -23.667 -8.5 -33 -25.5s-17.166 -36.667 -23.499 -59s-11 -44.333 -14 -66s-4.5 -37.167 -4.5 -46.5c0 -2 0.333008 -6 1 -12s1.83398 -12.333 3.50098 -19s3.5 -12.5 5.5 -17.5s4.33301 -7.5 7 -7.5z
" />
    <glyph glyph-name="e" unicode="e" horiz-adv-x="271" 
d="M153 42c18.667 0 36.332 6.66699 52.999 20s31.5 28.833 44.5 46.5s24 35.5 33 53.5s15.5 31.667 19.5 41c7.33301 -1.33301 13.166 -4.66602 17.499 -9.99902s5.83301 -11 4.5 -17c-5.33301 -22 -13.833 -43.333 -25.5 -64s-25.167 -39 -40.5 -55
s-32.333 -28.833 -51 -38.5s-38 -14.5 -58 -14.5c-22.667 0 -42.667 4 -60 12s-32 19 -44 33s-21 30.167 -27 48.5s-9 37.5 -9 57.5c0 16 2 34.667 6 56s10.5 41.5 19.5 60.5s20.833 35.167 35.5 48.5s32.667 20 54 20c10.667 0 20 -2.33301 28 -7
s14.5 -10.834 19.5 -18.501s8.66699 -16.167 11 -25.5s3.5 -19 3.5 -29c0 -12 -2.5 -25 -7.5 -39s-12 -27.333 -21 -40s-19.5 -23.167 -31.5 -31.5s-25 -12.5 -39 -12.5h-5c0.666992 -7.33301 2.33398 -16.333 5.00098 -27s6.83398 -21 12.501 -31s12.667 -18.667 21 -26
s18.833 -11 31.5 -11zM128.998 309c-9.33301 -1.33301 -16.999 -7.50098 -22.999 -18.501s-10.833 -23.833 -14.5 -38.5s-6.33398 -29.5 -8.00098 -44.5s-2.5 -26.833 -2.5 -35.5c0 -2 0.333008 -4.16699 1 -6.5s2.66699 -3.5 6 -3.5c8 0 16.333 7.83301 25 23.5
s15.667 32.834 21 51.501s8 35.5 8 50.5s-4.33301 22.167 -13 21.5z" />
    <glyph glyph-name="f" unicode="f" horiz-adv-x="227" 
d="M192 393c8 0 15.8291 -2 23.4961 -6s11.5 -10.333 11.5 -19c0 -6 -5.33301 -10.5 -16 -13.5s-22.834 -5 -36.501 -6s-27.167 -1.5 -40.5 -1.5h-27c10.667 -18 19.834 -37.667 27.501 -59s14 -43.166 19 -65.499s8.5 -44.833 10.5 -67.5s3 -44.334 3 -65.001
c0 -7.33301 -0.333008 -20.333 -1 -39s-2 -39.667 -4 -63s-4.66699 -47.5 -8 -72.5s-8 -48 -14 -69s-13.167 -38.167 -21.5 -51.5s-18.166 -20 -29.499 -20c-9.33301 0 -18.333 3.16699 -27 9.5s-14.334 14.166 -17.001 23.499
c-7.33301 27.333 -13.166 57.666 -17.499 90.999s-7.66602 67.5 -9.99902 102.5s-4 69.833 -5 104.5s-1.33301 67.5 -1 98.5s1 58.833 2 83.5s1.83301 44.334 2.5 59.001c-0.666992 2.66699 -3.16699 4.66699 -7.5 6s-9 2.33301 -14 3s-9.5 1.66699 -13.5 3s-6 4 -6 8
s2.16699 7.66699 6.5 11s9.16602 6.33301 14.499 9l14.5 7.5c4.33301 2.33301 6.5 4.83301 6.5 7.5c0.666992 16 1.83398 33.167 3.50098 51.5s3.5 36.5 5.5 54.5s3.66699 34.833 5 50.5s2.33301 28.5 3 38.5c0.666992 7.33301 4.83398 12 12.501 14s14.167 3 19.5 3
c6.66699 0 13.834 -1.33301 21.501 -4s11.5 -8 11.5 -16c0 -34.667 -2 -68.167 -6 -100.5s-6.66699 -66.166 -8 -101.499c16 0.666992 32.5 1 49.5 1h57.5zM117.996 93c0 38 -2.49902 73.167 -7.49902 105.5s-14.5 66.166 -28.5 101.499c0 -48 0.166992 -91.5 0.5 -130.5
s1 -74.833 2 -107.5s2.5 -63.167 4.5 -91.5s4.66699 -56.166 8 -83.499c7.33301 34 12.666 68.167 15.999 102.5s5 68.833 5 103.5z" />
    <glyph glyph-name="g" unicode="g" horiz-adv-x="279" 
d="M220 187c0 -30 1.83301 -59.833 5.5 -89.5l11.5 -89l11.5 -89c3.66699 -29.667 5.5 -59.5 5.5 -89.5c0 -22.667 -2.33301 -43.834 -7 -63.501s-12.334 -36.834 -23.001 -51.501s-24.667 -26.334 -42 -35.001s-38.666 -13 -63.999 -13c-34 0 -60.667 8.83301 -80 26.5
s-29 43.834 -29 78.501c0 10.667 2.16699 25.667 6.5 45s10.5 38.833 18.5 58.5s17.5 36.834 28.5 51.501s23.5 22.667 37.5 24c4 0.666992 10.167 -0.166016 18.5 -2.49902s12.5 -6.16602 12.5 -11.499c-18.667 -21.333 -33.667 -46.166 -45 -74.499s-17 -57.5 -17 -87.5
c0 -7.33301 0.666992 -15.333 2 -24s3.83301 -16.5 7.5 -23.5s8.5 -12.833 14.5 -17.5s13.667 -7 23 -7c12.667 0 23 4.33301 31 13s14.333 19 19 31s7.66699 24.5 9 37.5s2 24.167 2 33.5c0 50.667 -4.16699 100.667 -12.5 150s-13.5 99.333 -15.5 150
c-4.66699 -10 -10.334 -19.667 -17.001 -29s-14.167 -17.833 -22.5 -25.5s-17.5 -13.834 -27.5 -18.501s-21 -7 -33 -7c-22.667 0 -38.167 7.5 -46.5 22.5s-12.5 32.167 -12.5 51.5c0 15.333 3.16699 35.166 9.5 59.499s15.5 47.833 27.5 70.5s26.333 42.167 43 58.5
s35 24.5 55 24.5c14.667 0 26.667 -3.5 36 -10.5s17 -16.833 23 -29.5h11.5c5 0 9.83301 -0.5 14.5 -1.5s8.83398 -2.66699 12.501 -5s5.5 -5.5 5.5 -9.5c0 -13.333 -1.33301 -26.833 -4 -40.5s-4 -27.5 -4 -41.5zM61 70c6.66699 -0.666992 13.668 2.66797 21.001 10.001
s14.666 16.833 21.999 28.5s14.333 24.667 21 39s12.5 28.166 17.5 41.499s9 25.333 12 36s4.5 18.334 4.5 23.001c0 1.33301 -0.666992 4.66602 -2 9.99902s-3.5 10.833 -6.5 16.5s-6.5 10.667 -10.5 15s-8.66699 6.5 -14 6.5s-11.5 -5.5 -18.5 -16.5
s-13.833 -24.833 -20.5 -41.5s-13 -34.667 -19 -54s-10.5 -37.333 -13.5 -54s-4.16699 -30.667 -3.5 -42s4 -17.333 10 -18z" />
    <glyph glyph-name="h" unicode="h" horiz-adv-x="281" 
d="M169 326c13.333 0 24.166 -6.50195 32.499 -19.502s15 -29.333 20 -49s9 -41.334 12 -65.001s5.5 -46.334 7.5 -68.001s4 -40.667 6 -57s5 -27.166 9 -32.499c0 -4 -1.66699 -7.33301 -5 -10s-7 -4.66699 -11 -6s-7.83301 -2.16602 -11.5 -2.49902
s-6.16699 -0.5 -7.5 -0.5c-18 0 -29.667 6.33301 -35 19s-8 26.667 -8 42c0 4.66699 -0.166992 13.167 -0.5 25.5s-0.833008 26 -1.5 41s-1.66699 30.5 -3 46.5s-3 30.833 -5 44.5s-4.5 24.667 -7.5 33s-6.5 12.5 -10.5 12.5c-8 0 -15.167 -8.83301 -21.5 -26.5
s-11.666 -38.834 -15.999 -63.501s-7.66602 -50.167 -9.99902 -76.5s-3.5 -48.166 -3.5 -65.499c0 -10 0.333008 -19.167 1 -27.5s1 -16.833 1 -25.5c0 -15.333 -3 -26 -9 -32s-15.667 -9 -29 -9c-10.667 0 -18.834 1.33301 -24.501 4s-10 6 -13 10s-5 8.66699 -6 14
s-1.5 10.666 -1.5 15.999l-3 49c-2 34.667 -3.33301 69.167 -4 103.5s-1 68.5 -1 102.5c0 68.667 2.66699 136.834 8 204.501s12.666 135.5 21.999 203.5c2 12.667 3.83301 23.167 5.5 31.5s3.83398 14.833 6.50098 19.5s6.16699 7.83398 10.5 9.50098
s10.166 2.5 17.499 2.5h7c4.66699 0 11 -1.16699 19 -3.5s12 -6.83301 12 -13.5c-2 0 -4 -7.83301 -6 -23.5s-4 -36.167 -6 -61.5s-4 -53.833 -6 -85.5s-3.83301 -63.667 -5.5 -96s-3 -63.333 -4 -93s-1.5 -54.834 -1.5 -75.501v-35c2.66699 9.33301 6.16699 19.333 10.5 30
s9.5 20.334 15.5 29.001s13.333 15.834 22 21.501s19.334 8.5 32.001 8.5z" />
    <glyph glyph-name="i" unicode="i" horiz-adv-x="208" 
d="M234 222c5.33301 0 10.666 -1.66699 15.999 -5s7.66602 -7 6.99902 -11c-2 -16.667 -7.5 -35 -16.5 -55s-20.333 -38.833 -34 -56.5s-29.334 -32.334 -47.001 -44.001s-36.167 -17.5 -55.5 -17.5c-24 0 -42.167 7.33301 -54.5 22s-21 32.5 -26 53.5
s-7.66699 43.167 -8 66.5s-0.5 43.333 -0.5 60c0 6.66699 0.333008 14.667 1 24s2.33398 18 5.00098 26s6.83398 14.833 12.501 20.5s13.5 8.5 23.5 8.5c8 0 15.667 -2.16699 23 -6.5s12 -9.83301 14 -16.5c-2 -10 -3.66699 -26.667 -5 -50s-1.5 -46.833 -0.5 -70.5
s3.66699 -44.5 8 -62.5s11.833 -27 22.5 -27c12 0 24.167 5.33301 36.5 16s23.833 23.334 34.5 38.001s19.834 30 27.501 46s13.167 29.667 16.5 41zM58 391c-11.333 0 -17.666 2.66797 -18.999 8.00098s-2 12.666 -2 21.999c0 11.333 2 21.166 6 29.499
s12.667 12.5 26 12.5c7.33301 0 13.666 -0.166992 18.999 -0.5s8.66602 -4.16602 9.99902 -11.499c0.666992 -5.33301 0.333984 -11.5 -0.999023 -18.5s-3.66602 -13.5 -6.99902 -19.5s-7.83301 -11.167 -13.5 -15.5s-11.834 -6.5 -18.501 -6.5z" />
    <glyph glyph-name="j" unicode="j" horiz-adv-x="141" 
d="M90 303c0 -60.667 2.66895 -120.668 8.00195 -180.001s8 -119.333 8 -180c0 -23.333 -2.16699 -49.5 -6.5 -78.5s-12 -56 -23 -81s-26.167 -46 -45.5 -63s-44.333 -25.5 -75 -25.5c-15.333 0 -28.5 2.83301 -39.5 8.5s-20 13.167 -27 22.5s-12 20.166 -15 32.499
s-4.5 25.5 -4.5 39.5c0 16.667 3.66699 37.5 11 62.5s17.5 49.333 30.5 73s28.833 43.834 47.5 60.501s39 25 61 25c5.33301 0 10.666 -1 15.999 -3c-6 78.667 -9 158.334 -9 239.001c0 7.33301 -0.333008 15.5 -1 24.5s-0.5 17.333 0.5 25s3.66699 14.167 8 19.5
s11.833 8 22.5 8c11.333 0 19.666 -2 24.999 -6s8 -11.667 8 -23zM-43.998 -272.001c10.667 0 20.166 4.16895 28.499 12.502s15.5 19.166 21.5 32.499s11.167 28 15.5 44s7.83301 31.833 10.5 47.5s4.5 30.167 5.5 43.5s1.5 23.666 1.5 30.999
c0 9.33301 -0.166992 19 -0.5 29s-0.833008 19.667 -1.5 29c-14 2 -27.5 -3.16699 -40.5 -15.5s-24.667 -28.333 -35 -48s-18.833 -41.5 -25.5 -65.5s-10.667 -46.333 -12 -67s0.333984 -38 5.00098 -52s13.667 -21 27 -21zM58.001 394.001
c-8.66699 0 -16.667 1.83398 -24 5.50098s-11 10.5 -11 20.5v21.5c0 6.33301 1 11.666 3 15.999s5.33301 7.83301 10 10.5s12 4 22 4s17.333 -1.16699 22 -3.5s8 -5.83301 10 -10.5s3 -10.167 3 -16.5v-21.5c0 -11.333 -3.5 -18.5 -10.5 -21.5s-15.167 -4.5 -24.5 -4.5z" />
    <glyph glyph-name="k" unicode="k" horiz-adv-x="313" 
d="M221 65c12.667 -0.666992 25.1631 3.3291 37.4961 11.9961s23.5 19 33.5 31s18.333 24 25 36s10.667 21.333 12 28c0.666992 0 2.33398 -0.666992 5.00098 -2s5.5 -3 8.5 -5s5.5 -4.5 7.5 -7.5s2.66699 -6.5 2 -10.5c-2 -10 -6.5 -22.5 -13.5 -37.5
s-16.167 -29.5 -27.5 -43.5s-25.5 -26 -42.5 -36s-36.5 -15 -58.5 -15c-13.333 0 -25.5 3 -36.5 9s-21 13.667 -30 23s-17.667 19.333 -26 30s-16.833 21 -25.5 31c0.666992 -10.667 2 -22.667 4 -36s2.66699 -25.666 2 -36.999s-3.83398 -21 -9.50098 -29
s-16.5 -12 -32.5 -12c-5.33301 0 -11.166 0.833008 -17.499 2.5s-11.5 4.5 -15.5 8.5c-4 3.33301 -6.83301 14.333 -8.5 33s-2.66699 39 -3 61s-0.5 43.167 -0.5 63.5v41.5c0 72.667 1 145 3 217s3 144.333 3 217c0 8 -0.166992 15.5 -0.5 22.5s0.5 12.833 2.5 17.5
s5.66699 8.33398 11 11.001s13.333 4 24 4c6.66699 0 13.334 -1.33301 20.001 -4s10.667 -7.66699 12 -15c2.66699 -17.333 4.5 -36.5 5.5 -57.5s1.16699 -47 0.5 -78s-1.33398 -68.333 -2.00098 -112s-1 -97.167 -1 -160.5c6.66699 8.66699 14.334 17.834 23.001 27.501
s18 18.5 28 26.5s20.5 14.667 31.5 20s22.5 8 34.5 8c14 0 26.167 -3.83301 36.5 -11.5s15.5 -19.167 15.5 -34.5c0 -13.333 -4.5 -27.166 -13.5 -41.499s-20.333 -27.5 -34 -39.5s-28.167 -22.167 -43.5 -30.5s-29 -13.833 -41 -16.5l16 -29
c6.66699 -12 14.334 -24 23.001 -36s17.834 -22.333 27.501 -31s19.167 -13 28.5 -13zM202.996 326.996c-6.66699 0 -15.3311 -4.5 -25.998 -13.5s-21.334 -19.667 -32.001 -32s-20.5 -24.5 -29.5 -36.5s-15.167 -21 -18.5 -27c7.33301 -2.66699 12.666 -7.66699 15.999 -15
c9.33301 2 19.833 6.66699 31.5 14s22.667 16 33 26s19 20.833 26 32.5s10.5 22.5 10.5 32.5c0 3.33301 -0.833008 7.33301 -2.5 12s-4.5 7 -8.5 7z" />
    <glyph glyph-name="l" unicode="l" horiz-adv-x="222" 
d="M243 208c7.33301 -0.666992 12.998 -3.33008 16.998 -7.99707s5.66699 -9.33398 5 -14.001c-2 -12.667 -7.5 -29 -16.5 -49s-20.667 -39.5 -35 -58.5s-31 -35.5 -50 -49.5s-39.5 -21 -61.5 -21c-16.667 0 -30.5 4.33301 -41.5 13s-19.833 20.167 -26.5 34.5
s-11.667 30.333 -15 48s-5.5 35.5 -6.5 53.5s-1.5 35.333 -1.5 52v42c0 14 0.333008 35 1 63s2.16699 58.833 4.5 92.5s5.66602 68.167 9.99902 103.5s10 67.5 17 96.5s15.833 52.833 26.5 71.5s23.334 28 38.001 28c12 0 21.333 -2.83301 28 -8.5
s11.834 -12.834 15.501 -21.501s6 -18.167 7 -28.5s1.5 -19.833 1.5 -28.5c0 -24.667 -1 -50 -3 -76s-5.66699 -51.833 -11 -77.5s-12.666 -50.667 -21.999 -75s-21.333 -47.166 -36 -68.499v-109c0 -32.667 0.666992 -60.667 2 -84s3.5 -41.5 6.5 -54.5
s7.83301 -19.5 14.5 -19.5s16 4.66699 28 14s24.333 21.166 37 35.499s25 30.666 37 48.999s22 36.5 30 54.5zM111.998 655.004c-4 -19.333 -7.33398 -40.332 -10.001 -62.999s-5 -45.667 -7 -69s-3.5 -46.333 -4.5 -69s-1.83301 -44 -2.5 -64
c4 14.667 7.83301 31.167 11.5 49.5s6.83398 37 9.50098 56s4.66699 37.667 6 56s2 35.5 2 51.5c0 9.33301 -0.5 18.166 -1.5 26.499s-2.16699 16.833 -3.5 25.5z" />
    <glyph glyph-name="m" unicode="m" horiz-adv-x="478" 
d="M533 190c-2 -15.333 -6.83008 -31.8271 -14.4971 -49.4941s-17.167 -34 -28.5 -49s-24.333 -27.5 -39 -37.5s-29.667 -15 -45 -15c-16.667 0 -30.167 3.16699 -40.5 9.5s-18.333 14.666 -24 24.999s-9.5 22.166 -11.5 35.499s-3 26.666 -3 39.999
c0 10.667 0.166992 25.334 0.5 44.001s0.5 37 0.5 55s-0.5 33.667 -1.5 47s-3.16699 20 -6.5 20c-8 0 -15.833 -5.83301 -23.5 -17.5s-14.834 -26.334 -21.501 -44.001s-12.834 -36.834 -18.501 -57.501s-10.667 -40.167 -15 -58.5s-8.16602 -33.833 -11.499 -46.5
s-5.66602 -20 -6.99902 -22c-3.33301 -3.33301 -7.16602 -5.5 -11.499 -6.5s-8.5 -1.16699 -12.5 -0.5c-6 0.666992 -11 5.33398 -15 14.001s-7.66699 19 -11 31s-6.5 24.833 -9.5 38.5s-6.33301 26.167 -10 37.5s-7.5 20.833 -11.5 28.5s-8.66699 11.5 -14 11.5
c-8.66699 0 -15 -6.16699 -19 -18.5s-6.5 -26.833 -7.5 -43.5s-1.33301 -33.5 -1 -50.5s0.5 -30.5 0.5 -40.5c0 -16 -2.16699 -27.833 -6.5 -35.5s-15.833 -11.5 -34.5 -11.5c-14.667 0 -25.5 5.16699 -32.5 15.5s-11.667 22.666 -14 36.999s-3.33301 29.333 -3 45
s0.5 28.834 0.5 39.501c0 6 0.166992 17.667 0.5 35s1 35.666 2 54.999s2.16699 37 3.5 53s3.33301 25 6 27c4 3.33301 8.66699 5.66602 14 6.99902s10.666 2 15.999 2c12 0 21 -2.33301 27 -7s9 -13 9 -25v-29c0 -7.33301 -0.333008 -17 -1 -29
c6.66699 10.667 13 17.5 19 20.5s13.667 4.5 23 4.5c16 0 29.667 -10.167 41 -30.5s21.666 -47.5 30.999 -81.5l18 53.5c7.33301 21.667 16.166 42.667 26.499 63s22.5 37.833 36.5 52.5s30 22 48 22c14.667 0 25.834 -6.83301 33.501 -20.5s13.167 -30.834 16.5 -51.501
s5.16602 -43 5.49902 -67s0.833008 -46.167 1.5 -66.5s2.16699 -37.333 4.5 -51s7.16602 -20.167 14.499 -19.5c10 0.666992 20 6 30 16s19.5 22 28.5 36s16.667 28.667 23 44s11.166 29 14.499 41c8 2.66699 15.333 1.66699 22 -3s9.33398 -11.667 8.00098 -21z" />
    <glyph glyph-name="n" unicode="n" horiz-adv-x="321" 
d="M255 92c8 0 16.6699 5.33398 26.0029 16.001s18.666 23.334 27.999 38.001s17.666 30 24.999 46s13 29.667 17 41c0.666992 0 2.66699 -0.833008 6 -2.5s6.5 -4 9.5 -7s5.5 -6.66699 7.5 -11s2 -9.5 0 -15.5c-4 -12.667 -9.5 -27.334 -16.5 -44.001
s-15.5 -32.334 -25.5 -47.001s-21.5 -27 -34.5 -37s-27.167 -15 -42.5 -15c-16 0 -28.833 4.66699 -38.5 14s-17.5 21 -23.5 35s-10.833 29.167 -14.5 45.5s-7.33398 31.5 -11.001 45.5s-8 25.667 -13 35s-11.833 14 -20.5 14c-12 0 -20.667 -6 -26 -18s-9 -26.5 -11 -43.5
s-2.66699 -34.5 -2 -52.5s1 -33 1 -45c0 -8.66699 0.833008 -17.167 2.5 -25.5s2.16699 -16 1.5 -23s-3.66699 -12.667 -9 -17s-14.666 -6.5 -27.999 -6.5c-16 0 -27.667 7.16699 -35 21.5s-12.333 31.333 -15 51s-3.66699 39.667 -3 60s1 36.166 1 47.499l1 124
c0 8.66699 3.66699 14.667 11 18s14.666 5 21.999 5c12 0 20.833 -3.16699 26.5 -9.5s9.5 -14.166 11.5 -23.499s2.66699 -19.5 2 -30.5s-1 -20.833 -1 -29.5c8.66699 15.333 17.5 25.833 26.5 31.5s18.167 8.5 27.5 8.5c14.667 0 26.834 -4.83301 36.501 -14.5
s17.667 -21.667 24 -36s11.666 -29.833 15.999 -46.5l12.5 -46.5c4 -14.333 8 -26.333 12 -36s9.33301 -14.5 16 -14.5z" />
    <glyph glyph-name="o" unicode="o" horiz-adv-x="283" 
d="M331 281c4.66699 0 9.99805 -2.83105 15.998 -8.49805s7.66699 -10.5 5 -14.5c-13.333 -18.667 -31.833 -34.5 -55.5 -47.5s-46.834 -21.167 -69.501 -24.5c0 -16.667 -2 -35.167 -6 -55.5s-10.333 -39.333 -19 -57s-20.167 -32.5 -34.5 -44.5s-31.833 -18 -52.5 -18
c-23.333 0 -41.833 5.66699 -55.5 17s-24.167 25.5 -31.5 42.5s-12.166 35.5 -14.499 55.5s-3.5 39 -3.5 57c0 10 0.333008 21.167 1 33.5s2.66699 24 6 35s8.83301 20.167 16.5 27.5s18.167 11 31.5 11c10 0 18.333 -2.33301 25 -7v9c0 16 4 30.667 12 44s21.333 20 40 20
c16.667 0 30.334 -4.66699 41.001 -14s19 -20.833 25 -34.5s10.333 -28.334 13 -44.001s4.33398 -29.834 5.00098 -42.501c24.667 7.33301 46.167 16.833 64.5 28.5s31.833 22.167 40.5 31.5zM169.998 188.002c-8.66699 0 -17.002 2.33301 -25.002 7s-15.5 10.5 -22.5 17.5
s-12.833 15.167 -17.5 24.5s-8 19 -10 29c-2 -9.33301 -3.33301 -18.166 -4 -26.499s-1 -16.5 -1 -24.5c0 -12 0.833008 -26.833 2.5 -44.5s3.83398 -34.834 6.50098 -51.501s5.83398 -30.834 9.50098 -42.501s7.5 -17.5 11.5 -17.5c14 0 24 11.833 30 35.5
s12.667 54.834 20 93.501zM172.996 233.002c-1.33301 15.333 -3.5 31.168 -6.5 47.501s-10.167 30.5 -21.5 42.5c-4.66699 -8.66699 -7 -18 -7 -28c0 -12.667 3.5 -24.334 10.5 -35.001s15.167 -19.667 24.5 -27z" />
    <glyph glyph-name="p" unicode="p" horiz-adv-x="253" 
d="M160 335c14.667 0 26.166 -4.50098 34.499 -13.501s14.666 -19.833 18.999 -32.5s7 -26.167 8 -40.5s1.5 -26.833 1.5 -37.5c0 -16 -1.33301 -33.833 -4 -53.5s-7.66699 -38.167 -15 -55.5s-17.5 -31.833 -30.5 -43.5s-29.833 -17.5 -50.5 -17.5
c-4.66699 0 -9.33398 0.333008 -14.001 1s-9.33398 1.66699 -14.001 3c0 -26 0.833008 -50.333 2.5 -73l5 -67c1.66699 -22 3.16699 -44.167 4.5 -66.5s2 -46.5 2 -72.5c0 -12.667 -4 -20.834 -12 -24.501s-17.667 -5.5 -29 -5.5c-3.33301 0 -7.16602 0.166992 -11.499 0.5
s-8.5 1.33301 -12.5 3s-7.66699 3.83398 -11 6.50098s-5.33301 6 -6 10c-6 43.333 -10.167 90.5 -12.5 141.5s-3.66602 102.667 -3.99902 155s-0.166016 104.166 0.500977 155.499s1 99 1 143c0 10.667 4.16699 17.834 12.5 21.501s17.333 4.83398 27 3.50098
s18.667 -4.83301 27 -10.5s12.5 -12.5 12.5 -20.5v-17v-11v-11c0 -4 0.333008 -9.66699 1 -17c12.667 30.667 35.334 46 68.001 46zM119.999 74.999c11.333 0 20.6689 7.16895 28.002 21.502s13.166 30.833 17.499 49.5s7.33301 37.167 9 55.5s2.5 31.166 2.5 38.499v18.5
c0 6.33301 -0.5 12.166 -1.5 17.499s-3 9.83301 -6 13.5s-7.5 6.16699 -13.5 7.5c-9.33301 1.33301 -18 -2.66699 -26 -12s-14.667 -21 -20 -35s-9.5 -28.5 -12.5 -43.5s-4.5 -26.833 -4.5 -35.5c0 -3.33301 0.166992 -10.333 0.5 -21s1.16602 -21.5 2.49902 -32.5
s3.83301 -20.833 7.5 -29.5s9.16699 -13 16.5 -13z" />
    <glyph glyph-name="q" unicode="q" horiz-adv-x="303" 
d="M367 231c3.33301 -12.667 2.00195 -29.3359 -3.99805 -50.0029s-14.833 -41.334 -26.5 -62.001s-25.167 -39.5 -40.5 -56.5s-30.333 -28.167 -45 -33.5c9.33301 -8 18 -21.333 26 -40s14.333 -39.667 19 -63s7.16699 -47.333 7.5 -72s-2.16699 -47.167 -7.5 -67.5
s-14 -37.166 -26 -50.499s-28 -20 -48 -20c-22.667 0 -40.5 6.33301 -53.5 19s-22.833 28.167 -29.5 46.5s-10.834 38 -12.501 59s-2.5 39.833 -2.5 56.5c0 33.333 1 67.166 3 101.499s5.66699 67.833 11 100.5c-8 -15.333 -18.167 -28.833 -30.5 -40.5
s-28.166 -17.5 -47.499 -17.5c-22.667 0 -38.334 5.16699 -47.001 15.5s-13 26.166 -13 47.499c0 18.667 1.83301 41.334 5.5 68.001s10.167 52.167 19.5 76.5s22 45 38 62s36.333 25.5 61 25.5c16.667 0 29.667 -3.33301 39 -10s16.666 -14.167 21.999 -22.5
s9.33301 -16.166 12 -23.499s5.66699 -11.333 9 -12c7.33301 -1.33301 13.666 -3.16602 18.999 -5.49902s8 -8.16602 8 -17.499c0 -30.667 -3.33301 -63 -10 -97s-11.334 -67 -14.001 -99c21.333 3.33301 40 14.333 56 33s29.333 39.334 40 62.001
s18.834 43.834 24.501 63.501s8.83398 32.167 9.50098 37.5c3.33301 -0.666992 6.5 -0.833984 9.5 -0.500977s5.5 0.5 7.5 0.5s4 -1 6 -3s3.66699 -5.66699 5 -11zM63.002 71.998c5.33301 4 13.3311 14.5 23.998 31.5l32.5 54.5c11 19.333 20.5 38 28.5 56s12 30 12 36
c0 4.66699 -1 10 -3 16s-4.5 12 -7.5 18s-6.66699 11.167 -11 15.5s-8.5 7.5 -12.5 9.5c-8 0 -15.333 -4.33301 -22 -13s-12.5 -19.667 -17.5 -33s-9.33301 -28.333 -13 -45s-6.66699 -32.667 -9 -48s-4.16602 -29.333 -5.49902 -42s-2 -22 -2 -28
c0 -5.33301 0.333008 -10.333 1 -15s2.33398 -9 5.00098 -13zM226 -250.002c8.66699 0 15.832 5.66797 21.499 17.001s9.66699 25.666 12 42.999s3 36.833 2 58.5s-3.66699 42.834 -8 63.501s-10.333 39.667 -18 57s-16.834 30.666 -27.501 39.999
c-1.33301 -12 -2.66602 -27.167 -3.99902 -45.5s-2.66602 -37.833 -3.99902 -58.5s-2 -41.5 -2 -62.5s0.833008 -39.833 2.5 -56.5s4.5 -30.167 8.5 -40.5s9.66699 -15.5 17 -15.5z" />
    <glyph glyph-name="r" unicode="r" horiz-adv-x="246" 
d="M223 307c2 -8 2.66406 -16.834 1.99707 -26.501s-3 -18.5 -7 -26.5c-3.33301 -7.33301 -9.16602 -12.666 -17.499 -15.999s-16.166 -2.33301 -23.499 3c-2.66699 2 -4.16699 4.5 -4.5 7.5s0 6.16699 1 9.5l3 10c1 3.33301 1.83301 6 2.5 8
c0.666992 4 1.66699 8.66699 3 14s2.16602 10.333 2.49902 15s-0.166992 8.5 -1.5 11.5s-4 4.16699 -8 3.5c-2.66699 -0.666992 -6.5 -4.33398 -11.5 -11.001s-10.333 -14.667 -16 -24s-11.167 -19.166 -16.5 -29.499s-9.33301 -19.5 -12 -27.5
c-12 -34.667 -20.167 -71.834 -24.5 -111.501s-4.83301 -78.5 -1.5 -116.5c-1.33301 -6.66699 -5.16602 -11 -11.499 -13s-13.5 -2.66699 -21.5 -2s-15.833 2.33398 -23.5 5.00098s-13.5 5.33398 -17.5 8.00098c-2 12 -3.66699 26.833 -5 44.5
s-2.16602 36.834 -2.49902 57.501s-0.5 42.167 -0.5 64.5v65.5c0 21.333 1 43 3 65c1.33301 7.33301 6.33301 12 15 14s15.667 3 21 3c8 -0.666992 15 -2.33398 21 -5.00098s9.66699 -8.33398 11 -17.001c1.33301 -9.33301 2 -18.833 2 -28.5v-28.5
c5.33301 16.667 12.666 34 21.999 52s21 33 35 45c6.66699 6 14.334 9.83301 23.001 11.5s17 1.5 25 -0.5s15 -5.83301 21 -11.5s10.333 -13.167 13 -22.5z" />
    <glyph glyph-name="s" unicode="s" horiz-adv-x="215" 
d="M266 267c6.66699 -1.33301 11.5039 -3.6709 14.5039 -7.00391s4.83301 -7.16602 5.5 -11.499s0.333984 -8.83301 -0.999023 -13.5s-3 -9 -5 -13c-2.66699 -5.33301 -9.66699 -13.166 -21 -23.499l-38 -33l-41.5 -34c-13.667 -11 -24.167 -20.167 -31.5 -27.5
c11.333 -19.333 22.333 -39.333 33 -60s15.334 -42.667 14.001 -66c-0.666992 -19.333 -5.83398 -38.666 -15.501 -57.999s-23.834 -33.666 -42.501 -42.999c-16.667 -7.33301 -34.834 -9.83301 -54.501 -7.5s-36.167 9.83301 -49.5 22.5
c-14.667 13.333 -24.834 29.666 -30.501 48.999s-6.16699 38.666 -1.5 57.999c2 10.667 5.66699 20.834 11 30.501s11.166 18.834 17.499 27.501s13 16.834 20 24.501s13.5 15.5 19.5 23.5l-18.5 37.5c-5 10.333 -9 19.333 -12 27s-5.16699 14 -6.5 19
s-2.33301 10.167 -3 15.5c-2.66699 18 -2.33398 37.167 0.999023 57.5s10 38.166 20 53.499c4.66699 6 10.667 11.333 18 16s15 8 23 10s16 2.16699 24 0.5s15 -5.5 21 -11.5c4 -4 5.83301 -7.83301 5.5 -11.5s-2 -6.66699 -5 -9s-6.66699 -4 -11 -5
s-8.5 -0.833008 -12.5 0.5c-12 -26 -16.5 -52.5 -13.5 -79.5s11.167 -53.833 24.5 -80.5l36 27l39.5 31c13 10.667 25.333 21.5 37 32.5s21.5 21.5 29.5 31.5zM89.0039 -88.0049c12 -0.666992 20.8311 4.33301 26.498 15s8.83398 23.834 9.50098 39.501
s-1.66602 32.167 -6.99902 49.5s-13 32.666 -23 45.999c-14 -12.667 -24.5 -27.5 -31.5 -44.5s-10.667 -33.167 -11 -48.5s2.66699 -28.5 9 -39.5s15.5 -16.833 27.5 -17.5z" />
    <glyph glyph-name="t" unicode="t" horiz-adv-x="169" 
d="M256 543c1.33301 -2 3.49902 -4.99512 6.49902 -8.99512s4.83301 -8 5.5 -12s-0.333008 -7.66699 -3 -11s-8.66699 -5 -18 -5c-22 0 -44 0.333008 -66 1s-44.333 0.333984 -67 -0.999023c-2 -21.333 -4.16699 -41.666 -6.5 -60.999s-5.16602 -38.333 -8.49902 -57
s-7 -37.5 -11 -56.5s-8.66699 -39.167 -14 -60.5c0 -15.333 0.333008 -35.833 1 -61.5s2 -50.834 4 -75.501s4.83301 -45.834 8.5 -63.501s8.83398 -26.5 15.501 -26.5c10.667 0 20.5 6.16699 29.5 18.5s17.333 27.666 25 45.999s14.5 38.166 20.5 59.499l16 59
c0.666992 2 3.16699 4 7.5 6s8.83301 3.16699 13.5 3.5s8.66699 -0.333984 12 -2.00098s4.66602 -5.5 3.99902 -11.5c-2 -15.333 -5.66699 -35.333 -11 -60s-13.166 -48.834 -23.499 -72.501s-23.5 -44 -39.5 -61s-35.333 -25.5 -58 -25.5c-16 0 -29.167 3.5 -39.5 10.5
s-18.833 15.333 -25.5 25s-11.667 20 -15 31s-5.66602 20.5 -6.99902 28.5c-4 26 -7.33301 55.167 -10 87.5s-4.66699 66.166 -6 101.499s-1.83301 71.166 -1.5 107.499s1.16602 71.5 2.49902 105.5c-28 -1.33301 -54.333 -2.66602 -79 -3.99902s-52 -2.66602 -82 -3.99902
c-12.667 -0.666992 -20.5 2.66602 -23.5 9.99902s-2.5 13.666 1.5 18.999c12.667 2 27.5 3.83301 44.5 5.5s34.167 3 51.5 4s33.833 2 49.5 3s28.5 2.16699 38.5 3.5c0.666992 10 1.66699 23.5 3 40.5s4.33301 33.5 9 49.5s11.667 29.167 21 39.5s22.666 13.5 39.999 9.5
c12.667 -2.66699 22 -9 28 -19s10.167 -21.667 12.5 -35s3.33301 -27.166 3 -41.499s-0.5 -27.5 -0.5 -39.5c7.33301 0 17.5 0.166992 30.5 0.5s26.5 0.5 40.5 0.5h40.5h30.5zM65.999 361.005c2 4.66699 4.16699 13.502 6.5 26.502s4.5 27.167 6.5 42.5
s3.66699 30.166 5 44.499s2 25.166 2 32.499c-1.33301 0 -3.33301 -0.166992 -6 -0.5s-5 -0.5 -7 -0.5h-8v-40.5c0 -15 0.166992 -29.5 0.5 -43.5s0.5 -26.667 0.5 -38v-23zM86.999 541.007c0.666992 4 1 10.666 1 19.999s-0.333008 19 -1 29s-2 18.833 -4 26.5
s-4.33301 11.5 -7 11.5c-2 0 -3.66699 -3.16699 -5 -9.5s-2.5 -14.166 -3.5 -23.499s-1.5 -19 -1.5 -29v-25h21z" />
    <glyph glyph-name="u" unicode="u" horiz-adv-x="359" 
d="M404 179c0 -12.667 -1.83496 -28.8301 -5.50195 -48.4971s-10.167 -38.834 -19.5 -57.501s-21.833 -34.834 -37.5 -48.501s-35.834 -21.167 -60.501 -22.5c-18 0 -33 3.5 -45 10.5s-22.167 16.167 -30.5 27.5s-14.833 24.333 -19.5 39s-8.33398 29.667 -11.001 45
c-4.66699 -8.66699 -10.667 -18.334 -18 -29.001s-15.5 -20.5 -24.5 -29.5s-18.833 -16.5 -29.5 -22.5s-21.667 -9 -33 -9c-15.333 0 -27.166 5.66699 -35.499 17s-14.333 25.5 -18 42.5s-5.5 36 -5.5 57s0.666992 41.333 2 61s3 37.167 5 52.5s3 26.333 3 33
c10.667 4 20.834 5.66699 30.501 5s15.834 -6.33398 18.501 -17.001c2.66699 -12 3.66699 -29.667 3 -53l-2 -69.5c-0.666992 -23 -0.333984 -43 0.999023 -60s6 -25.5 14 -25.5c9.33301 0 18.666 6.5 27.999 19.5s18 28.333 26 46s14.667 35.5 20 53.5
s8.66602 31.667 9.99902 41s2 19.666 2 30.999s0.666992 21.833 2 31.5s4 18 8 25s10.667 10.833 20 11.5c8.66699 0.666992 17 0.333984 25 -0.999023s15.333 -5.66602 22 -12.999c-2 -13.333 -3.5 -29.333 -4.5 -48s-1.33301 -38.334 -1 -59.001s1.33301 -41.167 3 -61.5
s4.33398 -38.666 8.00098 -54.999s8.5 -29.5 14.5 -39.5s13.667 -15 23 -15c11.333 0 22 6.66699 32 20s18.833 28.5 26.5 45.5s13.834 33.667 18.501 50s7.33398 27.833 8.00098 34.5c12.667 0.666992 20.334 -1 23.001 -5s4 -7.33301 4 -10z" />
    <glyph glyph-name="v" unicode="v" horiz-adv-x="262" 
d="M185 329c6.66699 6 12.668 9 18.001 9s9.83301 -2 13.5 -6s6.33398 -9.33301 8.00098 -16s2.5 -13.667 2.5 -21c0 -11.333 -0.333008 -26.333 -1 -45s-2.33398 -38.5 -5.00098 -59.5s-6.33398 -42.333 -11.001 -64s-10.834 -41 -18.501 -58s-17.167 -31 -28.5 -42
s-24.666 -16.5 -39.999 -16.5c-16.667 0 -31 5.16699 -43 15.5s-22.167 23.833 -30.5 40.5s-15 35.334 -20 56.001s-9 41.334 -12 62.001s-5 40.167 -6 58.5s-1.5 33.833 -1.5 46.5c0 10.667 3.16699 18.834 9.5 24.501s13.833 8.66699 22.5 9s17.5 -1.33398 26.5 -5.00098
s16.167 -8.83398 21.5 -15.501c-0.666992 -12.667 -0.166992 -30.5 1.5 -53.5s4.5 -46.667 8.5 -71s8.83301 -47.333 14.5 -69s12.167 -37.834 19.5 -48.501c11.333 10.667 21.5 28.167 30.5 52.5s16 50.333 21 78s7.66699 54.167 8 79.5s-2.5 45 -8.5 59z" />
    <glyph glyph-name="w" unicode="w" horiz-adv-x="343" 
d="M238 374c14 0 25.5029 -7.49609 34.5029 -22.4961s16 -32.667 21 -53s8.5 -40.5 10.5 -60.5s3 -35 3 -45v-50c0 -21.333 -1.83301 -42.166 -5.5 -62.499s-9.83398 -38 -18.501 -53s-21.667 -22.5 -39 -22.5c-13.333 0 -25 2.5 -35 7.5s-18.833 11.833 -26.5 20.5
s-14.334 18.167 -20.001 28.5s-10.5 21.166 -14.5 32.499c-0.666992 -10 -2 -20 -4 -30s-5.33301 -19 -10 -27s-10.834 -14.5 -18.501 -19.5s-17.834 -7.5 -30.501 -7.5c-14.667 0 -26.834 5.83301 -36.501 17.5s-17.167 26.667 -22.5 45s-9.16602 38.666 -11.499 60.999
s-3.5 44.333 -3.5 66s0.5 41.5 1.5 59.5s1.83301 32 2.5 42c0.666992 7.33301 3.83398 12 9.50098 14s12.834 3 21.501 3c10 0 19.167 -1.33301 27.5 -4s12.5 -10.334 12.5 -23.001c0 -18.667 -0.5 -37.834 -1.5 -57.501s-1.33301 -39.334 -1 -59.001
s1.66602 -39 3.99902 -58s6.83301 -37.5 13.5 -55.5c10 14 17 31.333 21 52s6 39.667 6 57c0 11.333 0.333008 23.833 1 37.5s1 26.167 1 37.5c0 6.66699 2.66699 11.5 8 14.5s11.333 4.16699 18 3.5s13.167 -2.83398 19.5 -6.50098s10.166 -8.5 11.499 -14.5
c0 -30.667 1.5 -57.5 4.5 -80.5s6.83301 -42.167 11.5 -57.5s9.83398 -26.833 15.501 -34.5s11.167 -11.5 16.5 -11.5c10 0 17.5 4.5 22.5 13.5s8.5 20.167 10.5 33.5s3.16699 27.333 3.5 42s0.5 27.667 0.5 39c0 6 -0.666992 16.5 -2 31.5s-3.16602 30.5 -5.49902 46.5
s-5.5 30.667 -9.5 44s-9 21 -15 23c-15.333 -3.33301 -23 2.33398 -23 17.001c0 6 1.66699 11.833 5 17.5s8.66602 8.5 15.999 8.5z" />
    <glyph glyph-name="x" unicode="x" horiz-adv-x="305" 
d="M339 237c15.333 6 22.999 0.663086 22.999 -16.0039c0 -20 -4.16699 -41.167 -12.5 -63.5s-19.5 -43.166 -33.5 -62.499s-30.5 -35.333 -49.5 -48s-39.167 -19 -60.5 -19c-10 0 -20 2.16699 -30 6.5s-19.5 10.166 -28.5 17.499s-17.5 15.5 -25.5 24.5s-15 18.5 -21 28.5
c-11.333 -17.333 -20.166 -35.166 -26.499 -53.499l-19.5 -56.5c-13.333 1.33301 -23.5 4.33301 -30.5 9s-10.5 14 -10.5 28c0 11.333 2.66699 23.833 8 37.5s11.333 26.834 18 39.501s13 23.834 19 33.501s10 15.834 12 18.501c-1.33301 4 -5 12.333 -11 25l-19 42
c-6.66699 15.333 -12.5 30.833 -17.5 46.5s-7.5 28.167 -7.5 37.5c0 8.66699 3.16699 15.334 9.5 20.001s13.5 7.5 21.5 8.5s15.5 0.166992 22.5 -2.5s11.167 -7.33398 12.5 -14.001c0 -3.33301 1.5 -9.33301 4.5 -18s6.5 -17.834 10.5 -27.501l11.5 -27
c3.66699 -8.33301 6.16699 -13.833 7.5 -16.5c4.66699 8.66699 11.167 18.834 19.5 30.501s17.5 22.834 27.5 33.501s20.5 19.834 31.5 27.501s21.833 11.5 32.5 11.5c7.33301 0 12.166 -1.33301 14.499 -4s4.16602 -6.33398 5.49902 -11.001l-22 -25.5l-31.5 -38.5
l-32 -42.5c-10.333 -14.333 -18.166 -26.833 -23.499 -37.5c0.666992 -4.66699 3.83398 -12.334 9.50098 -23.001s12.5 -21.334 20.5 -32.001s16.167 -20.167 24.5 -28.5s15.833 -12.5 22.5 -12.5c18 0 34.667 7.16699 50 21.5s28.333 30.5 39 48.5s19.167 35.333 25.5 52
s9.5 27.334 9.5 32.001z" />
    <glyph glyph-name="y" unicode="y" horiz-adv-x="293" 
d="M190 331c5.33301 0 11.5 -0.832031 18.5 -2.49902s11.167 -5.83398 12.5 -12.501c4.66699 -20 9.16699 -46.833 13.5 -80.5s8.16602 -68.834 11.499 -105.501s6.16602 -72 8.49902 -106s3.5 -61.333 3.5 -82c0 -31.333 -2.33301 -64.666 -7 -99.999s-13.667 -68 -27 -98
s-32.333 -54.833 -57 -74.5s-57 -29.5 -97 -29.5c-30 0 -51.667 8.5 -65 25.5s-20 39.5 -20 67.5c0 17.333 3.83301 40.166 11.5 68.499s18.167 55.833 31.5 82.5s29.166 49.667 47.499 69s38.166 29 59.499 29c4 0 9.83301 -1.16699 17.5 -3.5s11.5 -6.16602 11.5 -11.499
c0 -2.66699 -1 -4.5 -3 -5.5s-3.66699 -2.16699 -5 -3.5c-8 -4.66699 -18 -15 -30 -31s-23.667 -34.5 -35 -55.5s-21.833 -43.167 -31.5 -66.5s-16.167 -44.666 -19.5 -63.999s-2.66602 -35.333 2.00098 -48s15.334 -19 32.001 -19c14 0 26.667 4.83301 38 14.5
s21.166 22.167 29.499 37.5s15.333 32.666 21 51.999s10.167 38.666 13.5 57.999s5.83301 37.833 7.5 55.5s2.5 32.5 2.5 44.5c0 34.667 -1.66699 69 -5 103s-7 68 -11 102l-11.5 -34.5c-4.33301 -13 -9.83301 -25.333 -16.5 -37s-14.667 -21.334 -24 -29.001
s-20.666 -11.5 -33.999 -11.5c-15.333 0 -27.5 3.66699 -36.5 11s-16 16.5 -21 27.5s-8.33301 23 -10 36s-2.5 25.5 -2.5 37.5c0 5.33301 0.5 16.333 1.5 33s2.5 34.334 4.5 53.001s4.33301 35.5 7 50.5s5.33398 23.167 8.00098 24.5c5.33301 2.66699 11.333 4 18 4
c12.667 0 20.667 -2.33301 24 -7s4.33301 -12.667 3 -24c-1.33301 -14.667 -3.33301 -33.667 -6 -57s-4.5 -46.166 -5.5 -68.499s-0.5 -41.5 1.5 -57.5s7.33301 -24 16 -24c12.667 0 22.834 8.83301 30.501 26.5s14 39 19 64s9.16699 51.5 12.5 79.5s7 52.333 11 73
c1.33301 8 5 13.333 11 16s12.667 4 20 4z" />
    <glyph glyph-name="z" unicode="z" horiz-adv-x="274" 
d="M156 152c19.333 -12 35.334 -27.165 48.001 -45.498s22.667 -38 30 -59s12.5 -42.833 15.5 -65.5s4.5 -44.667 4.5 -66c0 -22.667 -2.83301 -49.334 -8.5 -80.001s-14.667 -60 -27 -88s-28.666 -51.667 -48.999 -71s-45.166 -29 -74.499 -29
c-24.667 0 -44.167 6.5 -58.5 19.5s-21.5 32.167 -21.5 57.5c0 28.667 4 59.5 12 92.5s18.667 63.5 32 91.5s28.333 51.333 45 70s34 28 52 28c5.33301 0 10 -1 14 -3c-4 22.667 -10.5 45.5 -19.5 68.5s-23.167 41.833 -42.5 56.5c-4 3.33301 -9.33301 6.33301 -16 9
s-10 7.33398 -10 14.001c0 2.66699 1.66699 5 5 7s5.66602 3.66699 6.99902 5c18.667 10.667 35.5 25.667 50.5 45s22.5 40.333 22.5 63c0 11.333 -3.16699 19.5 -9.5 24.5s-15.166 7.5 -26.499 7.5c-16.667 0 -34.334 -2.5 -53.001 -7.5s-33.334 -10.833 -44.001 -17.5
c-3.33301 0 -7 1.5 -11 4.5s-6 6.5 -6 10.5c0 4.66699 3.5 9.16699 10.5 13.5s16 8 27 11s23.333 5.5 37 7.5s27.167 3 40.5 3c11.333 0 22.5 -1 33.5 -3s20.667 -5.5 29 -10.5s15.166 -11.833 20.499 -20.5s8 -19.667 8 -33c0 -10.667 -2 -21.334 -6 -32.001
s-9.16699 -20.834 -15.5 -30.501s-13.5 -18.5 -21.5 -26.5s-16 -15 -24 -21zM92.001 -313.998c12 0 23.167 8.66797 33.5 26.001s19.333 38.333 27 63s13.834 50.334 18.501 77.001s7 49 7 67c0 11.333 -0.5 22.666 -1.5 33.999s-2.16699 22.666 -3.5 33.999
c-4.66699 2.66699 -11.667 -2.83301 -21 -16.5s-19 -31.667 -29 -54s-19.667 -46.833 -29 -73.5s-16.333 -51.667 -21 -75s-5.83398 -42.833 -3.50098 -58.5s9.83301 -23.5 22.5 -23.5z" />
    <glyph glyph-name="braceleft" unicode="{" horiz-adv-x="274" 
d="M160 101c0 -25.333 -1.49707 -51.1719 -4.49707 -77.5049s-2.5 -52.166 1.5 -77.499c2 -14 7.66699 -22.667 17 -26s19.166 -5.16602 29.499 -5.49902s19.666 -1.16602 27.999 -2.49902s12.5 -6.66602 12.5 -15.999c0 -4 -2.33301 -7.5 -7 -10.5s-10 -5.16699 -16 -6.5
s-12 -2.33301 -18 -3s-10.333 -1 -13 -1c-38 0 -65.833 7.66699 -83.5 23s-26.5 42 -26.5 80c0 24.667 1 49 3 73s3 48 3 72c0 17.333 -1 34.666 -3 51.999s-6 34 -12 50c-4 10.667 -8.83301 18 -14.5 22s-11.334 7 -17.001 9s-10.334 3.83301 -14.001 5.5
s-5.5 5.16699 -5.5 10.5c0 4.66699 1.5 8.16699 4.5 10.5s6.5 4.16602 10.5 5.49902s8.16699 2.5 12.5 3.5s7.83301 2.5 10.5 4.5c10 8.66699 16.333 19.667 19 33s4 26 4 38c0 34 -0.166992 67.333 -0.5 100s-0.5 65.667 -0.5 99c0 30.667 6.5 55.834 19.5 75.501
s36.5 29.5 70.5 29.5c3.33301 0 8.83301 -0.666992 16.5 -2s15.5 -3.16602 23.5 -5.49902s15 -5.33301 21 -9s9 -7.83398 9 -12.501c0 -5.33301 -3.33301 -9 -10 -11s-12 -3 -16 -3c-10 0 -17.333 2 -22 6s-9.66699 6 -15 6c-6 0 -10.667 -2.5 -14 -7.5s-6 -11 -8 -18
s-3.33301 -13.833 -4 -20.5s-1 -12 -1 -16c0 -35.333 0.833008 -70.166 2.5 -104.499s2.5 -69.166 2.5 -104.499c0 -18 -2.5 -35.833 -7.5 -53.5s-15.167 -32.167 -30.5 -43.5c10 -8.66699 18 -20.167 24 -34.5s10.333 -29.5 13 -45.5s4.33398 -32 5.00098 -48
s1 -30.333 1 -43z" />
    <glyph glyph-name="bar" unicode="|" horiz-adv-x="176" 
d="M119 612c0 -53.333 0.5 -106.837 1.5 -160.504l3 -164c1 -55.667 1.66699 -113.167 2 -172.5s-0.166992 -121 -1.5 -185c0 -6 0.166992 -12.167 0.5 -18.5s0 -12.166 -1 -17.499s-3 -10 -6 -14s-8.16699 -7 -15.5 -9c-10.667 -2 -22 -1.66699 -34 1s-18 10.667 -18 24
c0 16.667 0.166992 33.334 0.5 50.001s0.5 33.334 0.5 50.001c1.33301 100 1.5 200.333 0.5 301s-0.166992 206 2.5 316c0 6 0.166992 11.833 0.5 17.5s1.16602 10.5 2.49902 14.5s4 7.33301 8 10s9.66699 4.33398 17 5.00098c4.66699 0.666992 9.5 0.666992 14.5 0
s9.5 -2.33398 13.5 -5.00098c6.66699 -3.33301 9.83398 -9.66602 9.50098 -18.999s-0.5 -17.333 -0.5 -24z" />
    <glyph glyph-name="braceright" unicode="}" horiz-adv-x="270" 
d="M224 281c9.33301 -1.33301 16.834 -4.50488 22.501 -9.50488s4.83398 -11.833 -2.49902 -20.5c-12.667 -15.333 -22.667 -33.666 -30 -54.999c-7.33301 -23.333 -10.666 -47.666 -9.99902 -72.999s1.66699 -50.333 3 -75c0.666992 -11.333 1.66699 -23 3 -35
s2 -24.167 2 -36.5s-0.833008 -24.5 -2.5 -36.5s-5.5 -23 -11.5 -33c-4.66699 -8.66699 -10.834 -15.667 -18.501 -21s-16 -9.33301 -25 -12s-18.5 -4.33398 -28.5 -5.00098s-19.333 -0.333984 -28 0.999023c-3.33301 0.666992 -8 1.66699 -14 3s-12 3 -18 5
s-11.167 4.66699 -15.5 8s-6.5 7 -6.5 11c0 4.66699 2 8.33398 6 11.001s8.83301 4.33398 14.5 5.00098s11.167 0.666992 16.5 0s9.33301 -1.33398 12 -2.00098c6.66699 -1.33301 12.5 -2.66602 17.5 -3.99902s9.16699 1.33398 12.5 8.00098
c5.33301 9.33301 8.66602 19 9.99902 29s2 20 2 30c0 23.333 -1 47.166 -3 71.499s-2.83301 48.666 -2.5 72.999s3.16602 48 8.49902 71s15.333 44.833 30 65.5c-11.333 4.66699 -20.333 11.334 -27 20.001s-11.834 18.334 -15.501 29.001s-6.16699 21.667 -7.5 33
s-2 22.333 -2 33c-0.666992 25.333 0.5 50.5 3.5 75.5s5.16699 50.167 6.5 75.5c0.666992 6.66699 1.33398 15.834 2.00098 27.501s0.666992 23.334 0 35.001s-2.5 22.5 -5.5 32.5s-8.5 17 -16.5 21c-5.33301 2.66699 -11.666 2.66699 -18.999 0
s-13.666 -4.66699 -18.999 -6c-2 -0.666992 -5.66699 -0.666992 -11 0s-10.333 1.66699 -15 3s-8.16699 3.5 -10.5 6.5s-1.5 6.5 2.5 10.5c7.33301 6.66699 17.666 11.167 30.999 13.5s24.666 3.83301 33.999 4.5c10 0.666992 20 0 30 -2s19.667 -5.66699 29 -11
c10 -6 17.667 -13.833 23 -23.5s9.33301 -20.167 12 -31.5s4 -23 4 -35v-33c-1.33301 -25.333 -3 -51 -5 -77s-3 -51.667 -3 -77c0 -6 0.166992 -14.5 0.5 -25.5s1.5 -21.667 3.5 -32s5.33301 -19.5 10 -27.5s11.667 -12.333 21 -13z" />
    <glyph glyph-name="asciitilde" unicode="~" horiz-adv-x="451" 
d="M363 399c8 0 16.3301 -1.49707 24.9971 -4.49707s13 -9.16699 13 -18.5c0 -14 -3.5 -27.333 -10.5 -40s-16.167 -23.834 -27.5 -33.501s-23.833 -17.5 -37.5 -23.5s-26.834 -9 -39.501 -9c-24 0 -43.5 5.66699 -58.5 17s-27.5 23.666 -37.5 36.999
s-18.5 25.666 -25.5 36.999s-14.5 17 -22.5 17c-10 0 -17.5 -4.5 -22.5 -13.5s-9.33301 -19 -13 -30s-7.83398 -21 -12.501 -30s-12 -13.5 -22 -13.5c-7.33301 0 -12.833 2.16699 -16.5 6.5s-5.5 9.83301 -5.5 16.5c0 12.667 2.5 24.667 7.5 36s11.833 21.5 20.5 30.5
s18.667 16.167 30 21.5s23.333 8 36 8c20.667 0 38.334 -5.33301 53.001 -16s27.334 -22.5 38.001 -35.5s19.834 -24.833 27.501 -35.5s14.834 -16 21.501 -16c8.66699 0 16.334 4.83301 23.001 14.5s13 20.167 19 31.5s11.833 21.833 17.5 31.5s12.167 14.5 19.5 14.5z" />
    <glyph glyph-name="exclamdown" unicode="&#xa1;" horiz-adv-x="190" 
d="M98.0059 -283.96c-11.999 0 -20.666 2.00195 -25.999 6.00098c-5.33301 4 -8.99902 9.16602 -10.998 15.499c-2 6.33301 -2.83301 13.833 -2.5 22.499s0.5 17.665 0.5 26.998c0 61.9961 1.16602 123.659 3.49902 184.989c2.33301 61.3291 3.5 123.325 3.5 185.988
c0 9.99902 -0.5 19.998 -1.5 29.9971s-0.833008 18.998 0.5 26.9971c1.33301 8 5 14.5 11 19.499c5.99902 5 15.998 7.5 29.9971 7.5c3.99902 0 8.49902 -0.333008 13.499 -1c4.99902 -0.666992 9.49902 -1.83398 13.499 -3.50098s7.5 -4.16699 10.499 -7.5
c3 -3.33301 4.5 -7.66602 4.5 -12.999c0 -76.6621 -2.16602 -152.824 -6.49902 -228.485c-4.33301 -75.6621 -8.16602 -151.824 -11.499 -228.486c0 -5.33301 -0.166992 -10.666 -0.5 -15.999s-1.33301 -9.99902 -3 -13.998c-1.66602 -4 -4.66602 -7.33301 -8.99902 -10
c-4.33301 -2.66602 -10.833 -3.99902 -19.499 -3.99902zM70.0068 334.004c0 5.99902 -0.5 11.8301 -1.5 17.4971c-1 5.66602 -1.5 11.166 -1.5 16.499c0 9.33301 4.33301 15.333 12.999 18c8.66699 2.66602 16.667 3.99902 24 3.99902
c7.99902 0 15.998 -1.66602 23.9971 -4.99902c8 -3.33301 12 -9.99902 12 -19.998c0 -14.666 -2.16699 -28.165 -6.5 -40.4971c-4.33301 -12.333 -15.499 -18.499 -33.498 -18.499c-10.666 0 -18.332 2 -22.998 5.99902c-4.66699 4 -7 11.333 -7 21.999z" />
    <glyph glyph-name="cent" unicode="&#xa2;" horiz-adv-x="308" 
d="M244 144c4.66699 0 9.83008 -0.831055 15.4971 -2.49805s8.5 -5.83398 8.5 -12.501c0 -8.66699 -2.83301 -17.5 -8.5 -26.5s-12.5 -17.5 -20.5 -25.5s-16.167 -15 -24.5 -21s-15.166 -10 -20.499 -12c-2 -7.33301 -2.83301 -15.833 -2.5 -25.5
s0.333008 -18.834 0 -27.501s-2 -16 -5 -22s-8.83301 -9 -17.5 -9c-9.33301 0 -16.666 1.5 -21.999 4.5s-8 9.16699 -8 18.5l1 53c-33.333 -2 -58.333 6 -75 24s-25 43 -25 75c0 18 1.83301 37.333 5.5 58s9.5 40.834 17.5 60.501s18.333 37.167 31 52.5
s28.334 26.666 47.001 33.999c0.666992 5.33301 0.833984 12 0.500977 20s0 15.667 1 23s3.16699 13.5 6.5 18.5s8.66602 7.5 15.999 7.5c5.33301 0 10 -0.833008 14 -2.5s6 -4.83398 6 -9.50098c0 -6.66699 0.166992 -15.167 0.5 -25.5s0.5 -19.166 0.5 -26.499
c6 -1.33301 12.833 -3 20.5 -5s14.834 -4.83301 21.501 -8.5s12.167 -8.16699 16.5 -13.5s6.5 -12 6.5 -20c0 -7.33301 -2.33301 -12.333 -7 -15s-9.66699 -4 -15 -4c-7.33301 0 -12.833 1.5 -16.5 4.5s-6.83398 6.5 -9.50098 10.5l-8 11.5
c-2.66699 3.66699 -6.66699 6.16699 -12 7.5c0 -34.667 0.666992 -71.667 2 -111s3 -76.333 5 -111c4 4 7.83301 9 11.5 15s7.66699 11.833 12 17.5s9 10.5 14 14.5s10.5 6 16.5 6zM101.996 146.002c0 -23.333 3.16699 -42.166 9.5 -56.499s15.166 -20.833 26.499 -19.5
c0 54.667 -0.666992 98.5 -2 131.5s-1.66602 60.5 -0.999023 82.5c-4 -9.33301 -8 -19.833 -12 -31.5s-7.5 -23.834 -10.5 -36.501s-5.5 -25 -7.5 -37s-3 -23 -3 -33z" />
    <glyph glyph-name="sterling" unicode="&#xa3;" horiz-adv-x="369" 
d="M166 41c10 0 24.1777 0.669922 42.5107 2.00293s36.333 1.5 54 0.5s33.167 -3.83301 46.5 -8.5s20 -13 20 -25c0 -3.33301 -5 -5.83301 -15 -7.5s-22.833 -2.83398 -38.5 -3.50098s-32.834 -1 -51.501 -1s-36.667 0.333008 -54 1s-32.833 1.16699 -46.5 1.5
s-22.834 0.5 -27.501 0.5c-6.66699 0 -13.334 1.16699 -20.001 3.5s-10 8.16602 -10 17.499c0 4.66699 1.83301 7.83398 5.5 9.50098s7.66699 4.33398 12 8.00098s8.33301 9 12 16s5.5 18.167 5.5 33.5c0 38 -0.833008 76.333 -2.5 115s-1.83398 77 -0.500977 115
c0 5.33301 -3 8.5 -9 9.5s-12.667 1.66699 -20 2s-14 1.16602 -20 2.49902s-9 5.33301 -9 12c0 4 2 7.16699 6 9.5s8.66699 4 14 5s10.666 1.66699 15.999 2s9.33301 0.5 12 0.5c1.33301 -0.666992 3.16602 -0.833984 5.49902 -0.500977s3.16602 3.16602 2.49902 8.49902
c0 12 -0.333008 27.5 -1 46.5s-0.666992 39.167 0 60.5s2.33398 42.666 5.00098 63.999s7.5 40.666 14.5 57.999s16.167 31.333 27.5 42s26.333 16 45 16c17.333 0 31.833 -3.66699 43.5 -11s21.167 -17 28.5 -29s12.5 -25.5 15.5 -40.5s4.5 -30.167 4.5 -45.5
c0 -7.33301 -0.333008 -15.833 -1 -25.5s-2.33398 -19 -5.00098 -28s-6.83398 -16.5 -12.501 -22.5s-13.167 -9 -22.5 -9c-2.66699 0 -6.83398 0.666992 -12.501 2s-8.5 3.66602 -8.5 6.99902c0 0.666992 1 3 3 7l7 14.5c2.66699 5.66699 5 12 7 19s3 14.167 3 21.5
c0 8 -0.666992 18.5 -2 31.5s-3.66602 25.5 -6.99902 37.5s-8 22.167 -14 30.5s-13.667 11.5 -23 9.5c-8 -1.33301 -13.833 -7.16602 -17.5 -17.499s-6.33398 -22.166 -8.00098 -35.499s-2.33398 -26.666 -2.00098 -39.999s0.5 -24 0.5 -32c0 -21.333 0.333008 -43 1 -65
l2 -65l5 -8c3.33301 0 10.666 0.666992 21.999 2s23.166 2 35.499 2s23.333 -1.33301 33 -4s14.5 -7.33398 14.5 -14.001c0 -6 -2.33301 -10.5 -7 -13.5s-10.167 -5.16699 -16.5 -6.5s-12.666 -2 -18.999 -2h-15.5l-50 1c1.33301 -38 2.83301 -75.833 4.5 -113.5
s2.5 -75.5 2.5 -113.5c0 -10 -0.333008 -20.167 -1 -30.5s-3.66699 -20.166 -9 -29.499z" />
    <glyph glyph-name="yen" unicode="&#xa5;" horiz-adv-x="413" 
d="M373 626c0 -5.33301 -2.50195 -14.4922 -7.50195 -27.4922s-11.5 -28 -19.5 -45l-26 -54.5l-27.5 -55.5l-24.5 -48.5c-7.33301 -14.667 -12.666 -25.667 -15.999 -33c6 0 13.667 0.666992 23 2s18.833 1.83301 28.5 1.5s18.334 -1.83301 26.001 -4.5
s13.167 -7.33398 16.5 -14.001c0 -7.33301 -5 -12.5 -15 -15.5s-21.5 -4.83301 -34.5 -5.5s-25.833 -0.833984 -38.5 -0.500977s-21.334 0.5 -26.001 0.5v-19.5c0 -7.66699 -0.333008 -15.5 -1 -23.5s-1.16699 -15.667 -1.5 -23s-0.5 -13 -0.5 -17
c16.667 1.33301 31.167 2 43.5 2h39.5c23.333 0 35 -6.33301 35 -19c0 -4 -2.16699 -7.33301 -6.5 -10s-9.33301 -4.66699 -15 -6s-11.167 -2.33301 -16.5 -3s-9.33301 -1 -12 -1c-7.33301 0 -16.833 -0.166992 -28.5 -0.5s-24.5 -0.5 -38.5 -0.5c0 -6 0.166992 -19 0.5 -39
l1 -63c0.333008 -22 0.5 -42.167 0.5 -60.5s-0.666992 -28.5 -2 -30.5c-3.33301 -6 -9.5 -10 -18.5 -12s-16.5 -3 -22.5 -3c-4.66699 0 -9.66699 0.5 -15 1.5s-10 3.16699 -14 6.5c-2 1.33301 -3.66699 6.66602 -5 15.999s-2.33301 20.666 -3 33.999
s-1.16699 27.833 -1.5 43.5s-0.333008 30.667 0 45s0.5 27 0.5 38v23.5c-5.33301 0 -13.5 -0.666992 -24.5 -2s-21.833 -1.83301 -32.5 -1.5s-20 1.66602 -28 3.99902s-12 7.16602 -12 14.499c0 6 4.33301 10.333 13 13s18.5 4.5 29.5 5.5s21.833 1.5 32.5 1.5h22
c0 21.333 0.166992 37.666 0.5 48.999s1.16602 23.666 2.49902 36.999c-3.33301 0 -10.166 -0.166992 -20.499 -0.5s-21 0 -32 1s-20.833 2.83301 -29.5 5.5s-13 6.66699 -13 12c0 8 5 13 15 15s18 3 24 3c7.33301 0 14.5 -0.5 21.5 -1.5s14.167 -1.16699 21.5 -0.5
c-4 7.33301 -9.33301 18.333 -16 33l-21.5 49l-24 56.5l-22.5 55c-6.66699 17 -12.167 31.667 -16.5 44s-6.5 20.5 -6.5 24.5c0 6.66699 3.5 11 10.5 13s13.167 3 18.5 3c8.66699 0 15.834 -2.33301 21.501 -7s10.167 -10.667 13.5 -18c16.667 -36 32 -72 46 -108
s30 -71.667 48 -107c2.66699 4 7.5 12.667 14.5 26l25 46l30 54.5l29 52.5l22.5 40c6 10.667 9.33301 16.334 10 17.001c2 1.33301 6 2.66602 12 3.99902s10.333 2 13 2c4.66699 0 10 -0.833008 16 -2.5s9 -5.5 9 -11.5z" />
    <glyph glyph-name="dieresis" unicode="&#xa8;" horiz-adv-x="235" 
d="M109 399c-0.666992 -5.33301 -2.5 -9.5 -5.5 -12.5s-6.5 -5 -10.5 -6s-8 -1.5 -12 -1.5s-7.33301 0.333008 -10 1c-9.33301 2 -15.5 7.16699 -18.5 15.5s-2.16699 16.833 2.5 25.5c2.66699 5.33301 7.5 8.33301 14.5 9s13.167 0.666992 18.5 0
c11.333 -1.33301 18 -4.83301 20 -10.5s2.33301 -12.5 1 -20.5zM184 406c1.33301 -9.33301 -0.999023 -16.333 -6.99902 -21s-13 -7 -21 -7c-10.667 0 -18.5 3 -23.5 9s-6.16699 14.333 -3.5 25c2 7.33301 5.16699 12 9.5 14s10.166 3 17.499 3c16 0 25.333 -7.66699 28 -23
z" />
    <glyph glyph-name="copyright" unicode="&#xa9;" horiz-adv-x="679" 
d="M366 644c42 -3.33301 79.8301 -13.167 113.497 -29.5s62.334 -37.666 86.001 -63.999s41.834 -56.833 54.501 -91.5s19 -72 19 -112c0 -46.667 -7.66699 -90 -23 -130s-36.833 -74.833 -64.5 -104.5s-61 -52.834 -100 -69.501s-82.167 -25 -129.5 -25
c-41.333 0 -79.166 6.16699 -113.499 18.5s-64 30.333 -89 54s-44.5 52.167 -58.5 85.5s-21 71 -21 113c0 22.667 3 47 9 73s14.5 51.667 25.5 77s24.5 49.666 40.5 72.999s33.833 43.833 53.5 61.5s41 31.5 64 41.5s47.5 14.667 73.5 14c2.66699 6 8.66699 10.333 18 13
s23.333 3.33398 42 2.00098zM323.997 54.999c39.333 0 74.165 8.83691 104.498 26.5039s55.833 40.5 76.5 68.5s36.334 59.667 47.001 95s16 70.666 16 105.999c0 28 -4.33301 57.167 -13 87.5s-21.334 58.166 -38.001 83.499s-37.5 46.166 -62.5 62.499
s-53.833 24.5 -86.5 24.5c-5.33301 0 -10 -1.5 -14 -4.5s-9 -4.5 -15 -4.5c-33.333 0 -64 -10 -92 -30s-52.167 -45 -72.5 -75s-36.166 -63 -47.499 -99s-17 -70 -17 -102c0 -32.667 4.66699 -63.5 14 -92.5s23 -54.333 41 -76s40.333 -38.834 67 -51.501
s57.334 -19 92.001 -19zM404.996 236.003c4 0 9.66699 -1.16309 17 -3.49609s11 -6.16602 11 -11.499c0 -9.33301 -3.16699 -17 -9.5 -23s-14.166 -11 -23.499 -15s-19 -6.83301 -29 -8.5s-18.333 -2.5 -25 -2.5c-42 0 -73.333 12.667 -94 38s-31 58 -31 98
c0 37.333 7.33301 73.666 22 108.999c9.33301 21.333 22.5 37.333 39.5 48s36.833 16 59.5 16c10 0 20.167 -1.16699 30.5 -3.5s19.833 -5.83301 28.5 -10.5s15.667 -10.5 21 -17.5s8 -15.167 8 -24.5s-5.33301 -14 -16 -14c-6.66699 0 -11.834 2.16699 -15.501 6.5
s-7.5 9.16602 -11.5 14.499s-8.66699 10.166 -14 14.499s-13 6.5 -23 6.5c-12.667 0 -22.834 -6.33301 -30.501 -19s-13.667 -27.334 -18 -44.001s-7.16602 -33.5 -8.49902 -50.5s-2 -29.833 -2 -38.5c0 -8 0.833008 -17.333 2.5 -28s4.5 -20.834 8.5 -30.501
s9.5 -18 16.5 -25s15.833 -10.5 26.5 -10.5c6.66699 0 12 1.5 16 4.5s8 6.33301 12 10s8.5 7 13.5 10s11.167 4.5 18.5 4.5z" />
    <glyph glyph-name="registered" unicode="&#xae;" horiz-adv-x="527" 
d="M268 665c30.667 0 59.3301 -3.16504 85.9971 -9.49805s49.834 -16.833 69.501 -31.5s35.167 -33.834 46.5 -57.501s17 -52.834 17 -87.501c0 -32.667 -5.83301 -62 -17.5 -88s-27.5 -48.167 -47.5 -66.5s-43.667 -32.5 -71 -42.5s-56.666 -15 -87.999 -15
c-29.333 0 -57.5 4.5 -84.5 13.5s-50.667 22 -71 39s-36.666 37.667 -48.999 62s-18.5 52.166 -18.5 83.499c0 22.667 4.33301 46.667 13 72s20.667 48.333 36 69s33.5 37.834 54.5 51.501s44.167 20.5 69.5 20.5c10 0 19.667 -2.16699 29 -6.5s18 -6.5 26 -6.5z
M262.996 294.002c26 0 49.5 5.00195 70.5 15.002s39 23.333 54 40s26.667 36.167 35 58.5s12.5 45.833 12.5 70.5c0 45.333 -12.833 83.166 -38.5 113.499s-61.5 46.833 -107.5 49.5c-7.33301 0 -15 1 -23 3c-8 2.66699 -14.833 5.66699 -20.5 9s-13.167 5 -22.5 5
c-18.667 0 -36.167 -6.66699 -52.5 -20s-30.5 -29.833 -42.5 -49.5s-21.5 -40.334 -28.5 -62.001s-10.5 -40.5 -10.5 -56.5c0 -24 4.5 -46.667 13.5 -68s21.333 -40 37 -56s34 -28.667 55 -38s43.833 -14 68.5 -14zM328.996 432.004c2 -1.33301 5.33398 -3 10.001 -5
l14.5 -6c5 -2 9.5 -4.33301 13.5 -7s6 -5.33398 6 -8.00098c0 -6.66699 -4 -11.167 -12 -13.5s-14.333 -3.5 -19 -3.5c-14.667 0 -28 3.83301 -40 11.5s-23.333 15.834 -34 24.501c0.666992 -6 1.66699 -12.667 3 -20s1.66602 -14 0.999023 -20s-3 -11.167 -7 -15.5
s-10.667 -6.5 -20 -6.5c-10 0 -17.833 8.33301 -23.5 25s-10 36 -13 58s-4.83301 43.5 -5.5 64.5s-1 35.833 -1 44.5s2.66699 15.334 8 20.001s11.833 7.66699 19.5 9s15.834 2 24.501 2h24c6.66699 0 13.667 -1 21 -3s14.166 -4.83301 20.499 -8.5
s11.5 -8.33398 15.5 -14.001s6 -12.5 6 -20.5c0 -15.333 -6.33301 -30 -19 -44s-25 -25 -37 -33zM268.997 565.004c-2.66699 0 -6.00098 -0.667969 -10.001 -2.00098s-6 -3.66602 -6 -6.99902c0 -11.333 0.666992 -22.333 2 -33l4 -33c7.33301 6 15.333 13 24 21
s13 17.333 13 28c0 7.33301 -2.66699 13.5 -8 18.5s-11.666 7.5 -18.999 7.5z" />
    <glyph glyph-name="degree" unicode="&#xb0;" horiz-adv-x="245" 
d="M184 626c8 -7.33301 13.665 -16.335 16.998 -27.002s4.5 -21.5 3.5 -32.5s-3.66699 -21.833 -8 -32.5s-9.83301 -19.667 -16.5 -27c-6.66699 -8 -15.167 -14.667 -25.5 -20s-21.333 -9.16602 -33 -11.499s-23 -2.5 -34 -0.5s-20.833 6.66699 -29.5 14s-14 16.5 -16 27.5
s-1.66699 22.333 1 34s6.83398 22.834 12.501 33.501s11.834 19.334 18.501 26.001s14.667 12.667 24 18s19 9.16602 29 11.499s20 2.5 30 0.5s19 -6.66699 27 -14zM158.998 551.998c2.66699 12.667 1.16699 24.665 -4.5 35.998s-12.167 17 -19.5 17
c-6 0 -12 -1.83301 -18 -5.5s-11.5 -8.66699 -16.5 -15s-8.83301 -13.666 -11.5 -21.999s-3.66699 -17.166 -3 -26.499c0.666992 -13.333 4.5 -21.833 11.5 -25.5s14.833 -4 23.5 -1s16.667 8.5 24 16.5s12 16.667 14 26z" />
    <glyph glyph-name="acute" unicode="&#xb4;" horiz-adv-x="176" 
d="M147 415c-7.33301 -7.33301 -17.499 -15.168 -30.499 -23.501s-27.167 -12.833 -42.5 -13.5c-3.33301 0 -6.83301 0.666992 -10.5 2s-6.66699 3.33301 -9 6s-3.33301 5.5 -3 8.5s3.16602 6.16699 8.49902 9.5c8.66699 6 18.667 11.833 30 17.5s22 9.83398 32 12.501
c2 0.666992 5.16699 0.666992 9.5 0s8.33301 -1.66699 12 -3s6.16699 -3.33301 7.5 -6s0 -6 -4 -10z" />
    <glyph glyph-name="cedilla" unicode="&#xb8;" horiz-adv-x="214" 
d="M89 51c5.33301 -0.666992 9.33398 -2.99805 12.001 -6.99805s4.5 -8.66699 5.5 -14s1.5 -10.833 1.5 -16.5v-14.5c3.33301 -0.666992 8.16602 -1.83398 14.499 -3.50098s12.5 -4.5 18.5 -8.5s11.333 -9.66699 16 -17s7 -17 7 -29
c0 -20.667 -7.83301 -36.334 -23.5 -47.001s-32.834 -16 -51.501 -16c-8 0 -15.667 1 -23 3s-12.666 6.66699 -15.999 14c0 5.33301 3.5 9 10.5 11s12.5 3 16.5 3c10.667 0 20 2.5 28 7.5s12 13.167 12 24.5c0 7.33301 -3.33301 13.5 -10 18.5s-14 7.5 -22 7.5
c-7.33301 0 -14.5 0.333008 -21.5 1s-10.5 6 -10.5 16v20.5c0 7.66699 0.666992 15 2 22s3.83301 12.833 7.5 17.5s9.5 7 17.5 7h9z" />
    <glyph glyph-name="questiondown" unicode="&#xbf;" horiz-adv-x="363" 
d="M164.014 -272.961c-35.998 0 -63.9932 10.001 -83.9922 30s-29.998 47.9971 -29.998 83.9951s7.49902 71.6621 22.498 106.993s31.3311 68.6621 48.9961 99.9932l48.9971 85.4951c14.999 25.665 22.499 46.8301 22.499 63.4961c0 13.333 2.5 21.999 7.49902 25.998
c5 4 14.833 6 29.499 6c11.332 0 21.665 -2.16699 30.998 -6.5s13.999 -13.166 13.999 -26.499c0 -19.999 -8.16602 -43.3311 -24.499 -69.9961l-53.9961 -87.9941c-19.665 -31.998 -37.6641 -66.4961 -53.9971 -103.494
c-16.332 -36.9971 -24.498 -75.8281 -24.498 -116.492c0 -14.666 2.83301 -28.499 8.49902 -41.498c5.66699 -12.999 17.166 -19.499 34.498 -19.499c25.332 0 46.3311 6 62.9961 17.999s30.4971 25.832 41.4961 41.498c10.999 15.665 19.165 30.8311 24.498 45.4971
c5.33301 14.665 8.99902 24.3311 10.999 28.998c6.66602 0 13.666 -1.5 20.999 -4.5c7.33301 -2.99902 10.999 -8.49902 10.999 -16.499c0 -16.665 -5.16602 -33.6641 -15.499 -50.9971c-10.333 -17.332 -23.832 -32.6641 -40.4971 -45.9971
c-16.666 -13.332 -34.832 -24.3311 -54.4971 -32.998c-19.665 -8.66602 -39.1641 -12.999 -58.4961 -12.999zM232.012 311.006c-9.99902 0 -17.5 1.50098 -22.499 4.5c-5 3 -8.66602 7.33301 -10.999 13c-2.33301 5.66602 -3.66602 11.999 -3.99902 18.998
c-0.333008 7 -0.5 14.5 -0.5 22.499c0 9.99902 4 16.665 11.999 19.998s16.332 4.99902 24.999 4.99902c11.332 0 20.165 -2.16602 26.498 -6.49902s9.49902 -12.833 9.49902 -25.499c0 -6.66602 -0.166992 -13.165 -0.5 -19.498s-1.66602 -11.833 -3.99902 -16.499
c-2.33301 -4.66699 -5.83301 -8.5 -10.5 -11.5c-4.66602 -2.99902 -11.332 -4.49902 -19.999 -4.49902z" />
    <glyph glyph-name="Agrave" unicode="&#xc0;" 
d="M314 261c8 0.666992 17.165 0.661133 27.498 -0.00585938s17.166 -5.33398 20.499 -14.001c0 -5.33301 -2 -9.66602 -6 -12.999s-8.5 -6 -13.5 -8s-10 -3.33301 -15 -4s-8.5 -1 -10.5 -1c1.33301 -24 3 -50.167 5 -78.5s4.66699 -55.333 8 -81s7.33301 -48 12 -67
s10.334 -31.167 17.001 -36.5l-4 -4c-2.66699 -2.66699 -6.5 -5.5 -11.5 -8.5s-11 -5.66699 -18 -8s-14.5 -3.5 -22.5 -3.5c-14 0 -25 9.5 -33 28.5s-14.333 42.5 -19 70.5s-7.83398 58.333 -9.50098 91s-2.83398 62.667 -3.50098 90c-16 -1.33301 -34 -3.33301 -54 -6
s-37.667 -5.33398 -53 -8.00098c-1.33301 -4 -2.66602 -11.5 -3.99902 -22.5l-4.5 -38c-1.66699 -14.333 -3.33398 -29.666 -5.00098 -45.999s-2.83398 -31.666 -3.50098 -45.999s-1 -27 -1 -38s0.666992 -18.5 2 -22.5c-2 -5.33301 -6.66699 -8.66602 -14 -9.99902
s-12.666 -2 -15.999 -2c-13.333 0 -21.666 4.16699 -24.999 12.5s-5 19.166 -5 32.499c0 28 2.33301 56.333 7 85l14 84c-5.33301 -1.33301 -14.166 -3.16602 -26.499 -5.49902s-21.166 -5.16602 -26.499 -8.49902c-6 3.33301 -10 10.666 -12 21.999
c-0.666992 4 2 7.5 8 10.5s13 5.5 21 7.5s16 3.66699 24 5s13.667 2.33301 17 3c8 56.667 18 113.334 30 170.001s28.667 113.334 50 170.001c2 6 4.83301 13 8.5 21s8.33398 15.5 14.001 22.5s11.834 12.5 18.501 16.5s14 5 22 3c-0.666992 8 -1.33398 15.5 -2.00098 22.5
s-0.333984 13.333 0.999023 19s4.5 10 9.5 13s13.167 4.5 24.5 4.5c4.66699 0 10.334 -0.666992 17.001 -2c6 -1.33301 10.5 -3.83301 13.5 -7.5s5 -7.66699 6 -12s1.5 -9.16602 1.5 -14.499s0.333008 -10.333 1 -15c5.33301 -62.667 8.83301 -124.667 10.5 -186
s4.16699 -123.666 7.5 -186.999zM133.998 234.994c15.333 3.33301 32.3311 5.99805 50.998 7.99805s35.667 4.33301 51 7c-1.33301 56.667 -3.16602 116 -5.49902 178s-4.5 123.667 -6.5 185c-5.33301 -3.33301 -11.166 -13.666 -17.499 -30.999
s-12.666 -38.666 -18.999 -63.999s-12.5 -52.833 -18.5 -82.5s-11.333 -58 -16 -85l-12.5 -72c-3.66699 -21 -5.83398 -35.5 -6.50098 -43.5zM304.996 747.992c4 -2.66699 4.83301 -5.99902 2.5 -9.99902s-5.83301 -7.33301 -10.5 -10c-10 -4.66699 -21.333 -4.66699 -34 0
c-2.66699 1.33301 -7.33398 3.5 -14.001 6.5s-13.167 6.5 -19.5 10.5s-12 8.16699 -17 12.5s-7.16699 8.16602 -6.5 11.499c0 4 4 7.16699 12 9.5s13.333 3.5 16 3.5c6.66699 0 12.167 -1.5 16.5 -4.5s9.16602 -6.16699 14.499 -9.5c6.66699 -4 13.334 -7.5 20.001 -10.5
s13.334 -6.16699 20.001 -9.5z" />
    <glyph glyph-name="Aacute" unicode="&#xc1;" 
d="M314 261c8 0.666992 17.165 0.661133 27.498 -0.00585938s17.166 -5.33398 20.499 -14.001c0 -5.33301 -2 -9.66602 -6 -12.999s-8.5 -6 -13.5 -8s-10 -3.33301 -15 -4s-8.5 -1 -10.5 -1c1.33301 -24 3 -50.167 5 -78.5s4.66699 -55.333 8 -81s7.33301 -48 12 -67
s10.334 -31.167 17.001 -36.5l-4 -4c-2.66699 -2.66699 -6.5 -5.5 -11.5 -8.5s-11 -5.66699 -18 -8s-14.5 -3.5 -22.5 -3.5c-14 0 -25 9.5 -33 28.5s-14.333 42.5 -19 70.5s-7.83398 58.333 -9.50098 91s-2.83398 62.667 -3.50098 90c-16 -1.33301 -34 -3.33301 -54 -6
s-37.667 -5.33398 -53 -8.00098c-1.33301 -4 -2.66602 -11.5 -3.99902 -22.5l-4.5 -38c-1.66699 -14.333 -3.33398 -29.666 -5.00098 -45.999s-2.83398 -31.666 -3.50098 -45.999s-1 -27 -1 -38s0.666992 -18.5 2 -22.5c-2 -5.33301 -6.66699 -8.66602 -14 -9.99902
s-12.666 -2 -15.999 -2c-13.333 0 -21.666 4.16699 -24.999 12.5s-5 19.166 -5 32.499c0 28 2.33301 56.333 7 85l14 84c-5.33301 -1.33301 -14.166 -3.16602 -26.499 -5.49902s-21.166 -5.16602 -26.499 -8.49902c-6 3.33301 -10 10.666 -12 21.999
c-0.666992 4 2 7.5 8 10.5s13 5.5 21 7.5s16 3.66699 24 5s13.667 2.33301 17 3c8 56.667 18 113.334 30 170.001s28.667 113.334 50 170.001c2 6 4.83301 13 8.5 21s8.33398 15.5 14.001 22.5s11.834 12.5 18.501 16.5s14 5 22 3c-0.666992 8 -1.33398 15.5 -2.00098 22.5
s-0.333984 13.333 0.999023 19s4.5 10 9.5 13s13.167 4.5 24.5 4.5c4.66699 0 10.334 -0.666992 17.001 -2c6 -1.33301 10.5 -3.83301 13.5 -7.5s5 -7.66699 6 -12s1.5 -9.16602 1.5 -14.499s0.333008 -10.333 1 -15c5.33301 -62.667 8.83301 -124.667 10.5 -186
s4.16699 -123.666 7.5 -186.999zM133.998 234.994c15.333 3.33301 32.3311 5.99805 50.998 7.99805s35.667 4.33301 51 7c-1.33301 56.667 -3.16602 116 -5.49902 178s-4.5 123.667 -6.5 185c-5.33301 -3.33301 -11.166 -13.666 -17.499 -30.999
s-12.666 -38.666 -18.999 -63.999s-12.5 -52.833 -18.5 -82.5s-11.333 -58 -16 -85l-12.5 -72c-3.66699 -21 -5.83398 -35.5 -6.50098 -43.5zM312.996 764.992c-7.33301 -7.33301 -17.499 -15.168 -30.499 -23.501s-27.167 -12.833 -42.5 -13.5
c-3.33301 0 -6.83301 0.666992 -10.5 2s-6.66699 3.33301 -9 6s-3.33301 5.5 -3 8.5s3.16602 6.16699 8.49902 9.5c8.66699 6 18.667 11.833 30 17.5s22 9.83398 32 12.501c2 0.666992 5.16699 0.666992 9.5 0s8.33301 -1.66699 12 -3s6.16699 -3.33301 7.5 -6s0 -6 -4 -10z
" />
    <glyph glyph-name="Acircumflex" unicode="&#xc2;" 
d="M314 261c8 0.666992 17.165 0.661133 27.498 -0.00585938s17.166 -5.33398 20.499 -14.001c0 -5.33301 -2 -9.66602 -6 -12.999s-8.5 -6 -13.5 -8s-10 -3.33301 -15 -4s-8.5 -1 -10.5 -1c1.33301 -24 3 -50.167 5 -78.5s4.66699 -55.333 8 -81s7.33301 -48 12 -67
s10.334 -31.167 17.001 -36.5l-4 -4c-2.66699 -2.66699 -6.5 -5.5 -11.5 -8.5s-11 -5.66699 -18 -8s-14.5 -3.5 -22.5 -3.5c-14 0 -25 9.5 -33 28.5s-14.333 42.5 -19 70.5s-7.83398 58.333 -9.50098 91s-2.83398 62.667 -3.50098 90c-16 -1.33301 -34 -3.33301 -54 -6
s-37.667 -5.33398 -53 -8.00098c-1.33301 -4 -2.66602 -11.5 -3.99902 -22.5l-4.5 -38c-1.66699 -14.333 -3.33398 -29.666 -5.00098 -45.999s-2.83398 -31.666 -3.50098 -45.999s-1 -27 -1 -38s0.666992 -18.5 2 -22.5c-2 -5.33301 -6.66699 -8.66602 -14 -9.99902
s-12.666 -2 -15.999 -2c-13.333 0 -21.666 4.16699 -24.999 12.5s-5 19.166 -5 32.499c0 28 2.33301 56.333 7 85l14 84c-5.33301 -1.33301 -14.166 -3.16602 -26.499 -5.49902s-21.166 -5.16602 -26.499 -8.49902c-6 3.33301 -10 10.666 -12 21.999
c-0.666992 4 2 7.5 8 10.5s13 5.5 21 7.5s16 3.66699 24 5s13.667 2.33301 17 3c8 56.667 18 113.334 30 170.001s28.667 113.334 50 170.001c2 6 4.83301 13 8.5 21s8.33398 15.5 14.001 22.5s11.834 12.5 18.501 16.5s14 5 22 3c-0.666992 8 -1.33398 15.5 -2.00098 22.5
s-0.333984 13.333 0.999023 19s4.5 10 9.5 13s13.167 4.5 24.5 4.5c4.66699 0 10.334 -0.666992 17.001 -2c6 -1.33301 10.5 -3.83301 13.5 -7.5s5 -7.66699 6 -12s1.5 -9.16602 1.5 -14.499s0.333008 -10.333 1 -15c5.33301 -62.667 8.83301 -124.667 10.5 -186
s4.16699 -123.666 7.5 -186.999zM133.998 234.994c15.333 3.33301 32.3311 5.99805 50.998 7.99805s35.667 4.33301 51 7c-1.33301 56.667 -3.16602 116 -5.49902 178s-4.5 123.667 -6.5 185c-5.33301 -3.33301 -11.166 -13.666 -17.499 -30.999
s-12.666 -38.666 -18.999 -63.999s-12.5 -52.833 -18.5 -82.5s-11.333 -58 -16 -85l-12.5 -72c-3.66699 -21 -5.83398 -35.5 -6.50098 -43.5zM286.996 727.992c-5.33301 8.66699 -10.999 16.333 -16.999 23l-15 17l-23 -21c-9.33301 -8.66699 -17.333 -15.334 -24 -20.001
c-1.33301 -1.33301 -4.16602 -2 -8.49902 -2s-8.83301 0.166992 -13.5 0.5s-8.5 1.33301 -11.5 3s-3.5 3.5 -1.5 5.5c5.33301 7.33301 12.5 15.5 21.5 24.5s16.167 16.833 21.5 23.5l12.5 14.5c3.66699 4.33301 9.16699 6.83301 16.5 7.5s14.166 -0.5 20.499 -3.5
s12 -7 17 -12s9.83301 -10.667 14.5 -17s9 -11.833 13 -16.5l12 -14c4.66699 -5.33301 4.33398 -9.66602 -0.999023 -12.999c-4.66699 -3.33301 -10.334 -5 -17.001 -5s-12.334 1.66699 -17.001 5z" />
    <glyph glyph-name="Atilde" unicode="&#xc3;" 
d="M314 261c8 0.666992 17.165 0.661133 27.498 -0.00585938s17.166 -5.33398 20.499 -14.001c0 -5.33301 -2 -9.66602 -6 -12.999s-8.5 -6 -13.5 -8s-10 -3.33301 -15 -4s-8.5 -1 -10.5 -1c1.33301 -24 3 -50.167 5 -78.5s4.66699 -55.333 8 -81s7.33301 -48 12 -67
s10.334 -31.167 17.001 -36.5l-4 -4c-2.66699 -2.66699 -6.5 -5.5 -11.5 -8.5s-11 -5.66699 -18 -8s-14.5 -3.5 -22.5 -3.5c-14 0 -25 9.5 -33 28.5s-14.333 42.5 -19 70.5s-7.83398 58.333 -9.50098 91s-2.83398 62.667 -3.50098 90c-16 -1.33301 -34 -3.33301 -54 -6
s-37.667 -5.33398 -53 -8.00098c-1.33301 -4 -2.66602 -11.5 -3.99902 -22.5l-4.5 -38c-1.66699 -14.333 -3.33398 -29.666 -5.00098 -45.999s-2.83398 -31.666 -3.50098 -45.999s-1 -27 -1 -38s0.666992 -18.5 2 -22.5c-2 -5.33301 -6.66699 -8.66602 -14 -9.99902
s-12.666 -2 -15.999 -2c-13.333 0 -21.666 4.16699 -24.999 12.5s-5 19.166 -5 32.499c0 28 2.33301 56.333 7 85l14 84c-5.33301 -1.33301 -14.166 -3.16602 -26.499 -5.49902s-21.166 -5.16602 -26.499 -8.49902c-6 3.33301 -10 10.666 -12 21.999
c-0.666992 4 2 7.5 8 10.5s13 5.5 21 7.5s16 3.66699 24 5s13.667 2.33301 17 3c8 56.667 18 113.334 30 170.001s28.667 113.334 50 170.001c2 6 4.83301 13 8.5 21s8.33398 15.5 14.001 22.5s11.834 12.5 18.501 16.5s14 5 22 3c-0.666992 8 -1.33398 15.5 -2.00098 22.5
s-0.333984 13.333 0.999023 19s4.5 10 9.5 13s13.167 4.5 24.5 4.5c4.66699 0 10.334 -0.666992 17.001 -2c6 -1.33301 10.5 -3.83301 13.5 -7.5s5 -7.66699 6 -12s1.5 -9.16602 1.5 -14.499s0.333008 -10.333 1 -15c5.33301 -62.667 8.83301 -124.667 10.5 -186
s4.16699 -123.666 7.5 -186.999zM133.998 234.994c15.333 3.33301 32.3311 5.99805 50.998 7.99805s35.667 4.33301 51 7c-1.33301 56.667 -3.16602 116 -5.49902 178s-4.5 123.667 -6.5 185c-5.33301 -3.33301 -11.166 -13.666 -17.499 -30.999
s-12.666 -38.666 -18.999 -63.999s-12.5 -52.833 -18.5 -82.5s-11.333 -58 -16 -85l-12.5 -72c-3.66699 -21 -5.83398 -35.5 -6.50098 -43.5zM341.996 782.992c-1.33301 -15.333 -5.83398 -28.3359 -13.501 -39.0029s-20.167 -16 -37.5 -16c-10 0 -17.5 2 -22.5 6
s-9 8.5 -12 13.5s-6 9.66699 -9 14s-7.5 6.5 -13.5 6.5c-9.33301 0 -16.166 -4.16699 -20.499 -12.5s-4.5 -14.5 -0.5 -18.5c-1.33301 -4.66699 -5 -7.66699 -11 -9s-10.667 1 -14 7c-3.33301 6.66699 -4.5 13.667 -3.5 21s3.66699 13.833 8 19.5
s9.83301 10.334 16.5 14.001s13.667 5.5 21 5.5c10 0 18.167 -2.16699 24.5 -6.5s11.5 -9.16602 15.5 -14.499l10.5 -14.5c3 -4.33301 6.5 -6.5 10.5 -6.5c7.33301 0 13 4.33301 17 13s5.33301 16.334 4 23.001c4.66699 2.66699 11 4 19 4s11.667 -3.33301 11 -10z" />
    <glyph glyph-name="Adieresis" unicode="&#xc4;" 
d="M314 261c8 0.666992 17.165 0.661133 27.498 -0.00585938s17.166 -5.33398 20.499 -14.001c0 -5.33301 -2 -9.66602 -6 -12.999s-8.5 -6 -13.5 -8s-10 -3.33301 -15 -4s-8.5 -1 -10.5 -1c1.33301 -24 3 -50.167 5 -78.5s4.66699 -55.333 8 -81s7.33301 -48 12 -67
s10.334 -31.167 17.001 -36.5l-4 -4c-2.66699 -2.66699 -6.5 -5.5 -11.5 -8.5s-11 -5.66699 -18 -8s-14.5 -3.5 -22.5 -3.5c-14 0 -25 9.5 -33 28.5s-14.333 42.5 -19 70.5s-7.83398 58.333 -9.50098 91s-2.83398 62.667 -3.50098 90c-16 -1.33301 -34 -3.33301 -54 -6
s-37.667 -5.33398 -53 -8.00098c-1.33301 -4 -2.66602 -11.5 -3.99902 -22.5l-4.5 -38c-1.66699 -14.333 -3.33398 -29.666 -5.00098 -45.999s-2.83398 -31.666 -3.50098 -45.999s-1 -27 -1 -38s0.666992 -18.5 2 -22.5c-2 -5.33301 -6.66699 -8.66602 -14 -9.99902
s-12.666 -2 -15.999 -2c-13.333 0 -21.666 4.16699 -24.999 12.5s-5 19.166 -5 32.499c0 28 2.33301 56.333 7 85l14 84c-5.33301 -1.33301 -14.166 -3.16602 -26.499 -5.49902s-21.166 -5.16602 -26.499 -8.49902c-6 3.33301 -10 10.666 -12 21.999
c-0.666992 4 2 7.5 8 10.5s13 5.5 21 7.5s16 3.66699 24 5s13.667 2.33301 17 3c8 56.667 18 113.334 30 170.001s28.667 113.334 50 170.001c2 6 4.83301 13 8.5 21s8.33398 15.5 14.001 22.5s11.834 12.5 18.501 16.5s14 5 22 3c-0.666992 8 -1.33398 15.5 -2.00098 22.5
s-0.333984 13.333 0.999023 19s4.5 10 9.5 13s13.167 4.5 24.5 4.5c4.66699 0 10.334 -0.666992 17.001 -2c6 -1.33301 10.5 -3.83301 13.5 -7.5s5 -7.66699 6 -12s1.5 -9.16602 1.5 -14.499s0.333008 -10.333 1 -15c5.33301 -62.667 8.83301 -124.667 10.5 -186
s4.16699 -123.666 7.5 -186.999zM133.998 234.994c15.333 3.33301 32.3311 5.99805 50.998 7.99805s35.667 4.33301 51 7c-1.33301 56.667 -3.16602 116 -5.49902 178s-4.5 123.667 -6.5 185c-5.33301 -3.33301 -11.166 -13.666 -17.499 -30.999
s-12.666 -38.666 -18.999 -63.999s-12.5 -52.833 -18.5 -82.5s-11.333 -58 -16 -85l-12.5 -72c-3.66699 -21 -5.83398 -35.5 -6.50098 -43.5zM248.996 748.992c-0.666992 -5.33301 -2.5 -9.5 -5.5 -12.5s-6.5 -5 -10.5 -6s-8 -1.5 -12 -1.5s-7.33301 0.333008 -10 1
c-9.33301 2 -15.5 7.16699 -18.5 15.5s-2.16699 16.833 2.5 25.5c2.66699 5.33301 7.5 8.33301 14.5 9s13.167 0.666992 18.5 0c11.333 -1.33301 18 -4.83301 20 -10.5s2.33301 -12.5 1 -20.5zM323.996 755.992c1.33301 -9.33301 -0.999023 -16.333 -6.99902 -21
s-13 -7 -21 -7c-10.667 0 -18.5 3 -23.5 9s-6.16699 14.333 -3.5 25c2 7.33301 5.16699 12 9.5 14s10.166 3 17.499 3c16 0 25.333 -7.66699 28 -23z" />
    <glyph glyph-name="Aring" unicode="&#xc5;" 
d="M314 261c8 0.666992 17.165 0.661133 27.498 -0.00585938s17.166 -5.33398 20.499 -14.001c0 -5.33301 -2 -9.66602 -6 -12.999s-8.5 -6 -13.5 -8s-10 -3.33301 -15 -4s-8.5 -1 -10.5 -1c1.33301 -24 3 -50.167 5 -78.5s4.66699 -55.333 8 -81s7.33301 -48 12 -67
s10.334 -31.167 17.001 -36.5l-4 -4c-2.66699 -2.66699 -6.5 -5.5 -11.5 -8.5s-11 -5.66699 -18 -8s-14.5 -3.5 -22.5 -3.5c-14 0 -25 9.5 -33 28.5s-14.333 42.5 -19 70.5s-7.83398 58.333 -9.50098 91s-2.83398 62.667 -3.50098 90c-16 -1.33301 -34 -3.33301 -54 -6
s-37.667 -5.33398 -53 -8.00098c-1.33301 -4 -2.66602 -11.5 -3.99902 -22.5l-4.5 -38c-1.66699 -14.333 -3.33398 -29.666 -5.00098 -45.999s-2.83398 -31.666 -3.50098 -45.999s-1 -27 -1 -38s0.666992 -18.5 2 -22.5c-2 -5.33301 -6.66699 -8.66602 -14 -9.99902
s-12.666 -2 -15.999 -2c-13.333 0 -21.666 4.16699 -24.999 12.5s-5 19.166 -5 32.499c0 28 2.33301 56.333 7 85l14 84c-5.33301 -1.33301 -14.166 -3.16602 -26.499 -5.49902s-21.166 -5.16602 -26.499 -8.49902c-6 3.33301 -10 10.666 -12 21.999
c-0.666992 4 2 7.5 8 10.5s13 5.5 21 7.5s16 3.66699 24 5s13.667 2.33301 17 3c8 56.667 18 113.334 30 170.001s28.667 113.334 50 170.001c2 6 4.83301 13 8.5 21s8.33398 15.5 14.001 22.5s11.834 12.5 18.501 16.5s14 5 22 3c-0.666992 8 -1.33398 15.5 -2.00098 22.5
s-0.333984 13.333 0.999023 19s4.5 10 9.5 13s13.167 4.5 24.5 4.5c4.66699 0 10.334 -0.666992 17.001 -2c6 -1.33301 10.5 -3.83301 13.5 -7.5s5 -7.66699 6 -12s1.5 -9.16602 1.5 -14.499s0.333008 -10.333 1 -15c5.33301 -62.667 8.83301 -124.667 10.5 -186
s4.16699 -123.666 7.5 -186.999zM133.998 234.994c15.333 3.33301 32.3311 5.99805 50.998 7.99805s35.667 4.33301 51 7c-1.33301 56.667 -3.16602 116 -5.49902 178s-4.5 123.667 -6.5 185c-5.33301 -3.33301 -11.166 -13.666 -17.499 -30.999
s-12.666 -38.666 -18.999 -63.999s-12.5 -52.833 -18.5 -82.5s-11.333 -58 -16 -85l-12.5 -72c-3.66699 -21 -5.83398 -35.5 -6.50098 -43.5zM269.996 804.992c13.333 -4.66699 22.834 -14 28.501 -28s3.83398 -27.333 -5.49902 -40c-16 -18.667 -36.667 -24 -62 -16
c-14 4 -23.833 12.667 -29.5 26s-3.83398 26.333 5.49902 39c8 10 17.667 16.833 29 20.5s22.666 3.16699 33.999 -1.5zM247.997 738.992c9.33301 0 16.334 2.5 21.001 7.5s7 10.5 7 16.5s-2.16699 11.5 -6.5 16.5s-10.833 7.5 -19.5 7.5s-14.834 -2.5 -18.501 -7.5
s-5.5 -10.5 -5.5 -16.5s2 -11.5 6 -16.5s9.33301 -7.5 16 -7.5z" />
    <glyph glyph-name="AE" unicode="&#xc6;" horiz-adv-x="748" 
d="M296 630c18 4.66699 40.332 8.32422 66.999 10.9912s53 3.5 79 2.5s48.833 -4.16699 68.5 -9.5s31.167 -14 34.5 -26c2 -7.33301 1.33301 -13.833 -2 -19.5s-8 -9.16699 -14 -10.5c-10 6.66699 -22.667 11.667 -38 15s-32 5.33301 -50 6s-36.5 0 -55.5 -2
s-37.167 -4.33301 -54.5 -7c1.33301 -5.33301 2 -10.333 2 -15v-51c0 -18.667 0.166992 -37.667 0.5 -57l1 -57c0.333008 -18.667 0.833008 -35.667 1.5 -51c9.33301 0.666992 20.833 1 34.5 1h40.5c13.333 0 25.333 0.166992 36 0.5s17.667 1.16602 21 2.49902
c4 -2 7 -5 9 -9s2.66699 -8 2 -12s-2.5 -7.5 -5.5 -10.5s-7.5 -4.5 -13.5 -4.5h-25.5h-37c-13 0 -25.333 -0.166992 -37 -0.5s-20.167 -0.833008 -25.5 -1.5c0 -28.667 0.5 -55.334 1.5 -80.001l3 -73.5c1 -24.333 1.66699 -49.166 2 -74.499
s0.166016 -52.333 -0.500977 -81c12.667 -0.666992 29.5 0.5 50.5 3.5s41.667 6.83301 62 11.5s38.166 9.33398 53.499 14.001s23.666 8.66699 24.999 12c5.33301 0 11.333 -1.66699 18 -5s10 -8.66602 10 -15.999s-7.66699 -14.5 -23 -21.5s-34 -13.167 -56 -18.5
s-45 -10 -69 -14s-44.667 -7 -62 -9c1.33301 -3.33301 2.83301 -6 4.5 -8s3.16699 -4.33301 4.5 -7l-4 -4c-2.66699 -2.66699 -6.5 -5.5 -11.5 -8.5s-11 -5.66699 -18 -8s-14.5 -3.5 -22.5 -3.5c-14 0 -24.667 9.5 -32 28.5s-12.666 42.5 -15.999 70.5s-5.5 58.333 -6.5 91
s-1.83301 62.667 -2.5 90c-8 -0.666992 -17 -1.5 -27 -2.5s-20.333 -2.16699 -31 -3.5s-20.834 -2.66602 -30.501 -3.99902s-18.5 -2.66602 -26.5 -3.99902c-1.33301 -4 -2.66602 -11.5 -3.99902 -22.5l-4.5 -38c-1.66699 -14.333 -3.33398 -29.666 -5.00098 -45.999
s-2.83398 -31.666 -3.50098 -45.999s-1 -27 -1 -38s0.666992 -18.5 2 -22.5c-2 -5.33301 -6.66699 -8.66602 -14 -9.99902s-12.666 -2 -15.999 -2c-13.333 0 -21.666 4.16699 -24.999 12.5s-5 19.166 -5 32.499c0 28 2.33301 56.333 7 85l14 84
c-5.33301 -1.33301 -14.166 -3.16602 -26.499 -5.49902s-21.166 -5.16602 -26.499 -8.49902c-6 3.33301 -10 10.666 -12 21.999c-0.666992 4 2 7.5 8 10.5s13 5.5 21 7.5s16 3.66699 24 5s13.667 2.33301 17 3c8 56.667 18 113.334 30 170.001s28.667 113.334 50 170.001
c2 6 4.83301 13 8.5 21s8.33398 15.5 14.001 22.5s11.834 12.5 18.501 16.5s14 5 22 3c-0.666992 8 -1.33398 15.5 -2.00098 22.5s-0.333984 13.333 0.999023 19s4.5 10 9.5 13s13.167 4.5 24.5 4.5c4.66699 0 10.334 -0.666992 17.001 -2
c6 -1.33301 10.5 -3.83301 13.5 -7.5s5 -7.66699 6 -12s1.5 -9.16602 1.5 -14.499s0.333008 -10.333 1 -15v-4zM133.999 234.99c15.333 3.33301 33.668 6.00098 55.001 8.00098s39.666 4.33301 54.999 7c-1.33301 56.667 -2.5 115.5 -3.5 176.5s-2.5 122.167 -4.5 183.5
c-5.33301 -2.66699 -11.333 -12.834 -18 -30.501s-13.667 -39 -21 -64s-14.5 -52.167 -21.5 -81.5l-19.5 -84.5c-6 -27 -11 -50.833 -15 -71.5s-6.33301 -35 -7 -43z" />
    <glyph glyph-name="Ccedilla" unicode="&#xc7;" horiz-adv-x="344" 
d="M162 -8c11.333 0 23.665 4.6748 36.998 14.0078s26.166 20.166 38.499 32.499s23.333 24.666 33 36.999l20.5 26.5c5.33301 0 10.5 -1 15.5 -3s7.5 -6.33301 7.5 -13c0 -14 -4.5 -28.5 -13.5 -43.5s-20.333 -28.833 -34 -41.5s-28.5 -23.5 -44.5 -32.5
s-31.333 -14.5 -46 -16.5c0 -6.66699 0.333008 -11.334 1 -14.001l12 -3c5.33301 -1.33301 10.833 -3.83301 16.5 -7.5s10.5 -8.83398 14.5 -15.501s6 -15.334 6 -26.001c0 -18 -6.83301 -31.833 -20.5 -41.5s-28.834 -14.5 -45.501 -14.5
c-7.33301 0 -14.166 0.833008 -20.499 2.5s-11.166 6.16699 -14.499 13.5c0 4.66699 3.16699 7.83398 9.5 9.50098s11.166 2.5 14.499 2.5c9.33301 0 17.666 2.33301 24.999 7s11 11.667 11 21c0 6.66699 -3 12.334 -9 17.001s-12.667 7 -20 7
c-6 0 -12.167 0.166992 -18.5 0.5s-9.5 5.16602 -9.5 14.499c0 4.66699 -0.166992 9.66699 -0.5 15s-0.166016 10.666 0.500977 15.999c-24 6 -43.667 17.5 -59 34.5s-27.333 36.667 -36 59s-14.667 46.166 -18 71.499s-5 49.666 -5 72.999c0 18.667 1 42.5 3 71.5
s5.5 59.667 10.5 92s11.833 64.666 20.5 96.999s20 61.333 34 87s30.667 46.667 50 63s42 24.5 68 24.5c38 0 66 -11.667 84 -35s27 -52.333 27 -87c0 -7.33301 -0.833008 -20.166 -2.5 -38.499s-4.66699 -37 -9 -56s-10.166 -35.833 -17.499 -50.5s-16.666 -22 -27.999 -22
c-4.66699 0 -9.5 1 -14.5 3s-7.5 5.66699 -7.5 11c5.33301 8 10.5 19.5 15.5 34.5s9 31.5 12 49.5s4.5 36.5 4.5 55.5s-1.83301 36.167 -5.5 51.5s-9.83398 28 -18.501 38s-20.334 15 -35.001 15s-27.667 -7.83301 -39 -23.5s-21.166 -35.667 -29.499 -60
s-15.5 -51.333 -21.5 -81s-10.833 -58.5 -14.5 -86.5s-6.33398 -53.5 -8.00098 -76.5s-2.5 -39.833 -2.5 -50.5c0 -7.33301 0.333008 -17.833 1 -31.5s1.83398 -29 3.50098 -46s4.33398 -34.333 8.00098 -52s8.33398 -33.834 14.001 -48.501s12.5 -26.667 20.5 -36
s17.667 -14 29 -14z" />
    <glyph glyph-name="Egrave" unicode="&#xc8;" horiz-adv-x="356" 
d="M318 57c5.33301 0 11.335 -1.66211 18.002 -4.99512s10 -8.66602 10 -15.999c0 -6 -5.16699 -11.833 -15.5 -17.5s-23.5 -10.834 -39.5 -15.501s-33.667 -9.16699 -53 -13.5s-38 -7.83301 -56 -10.5s-34.333 -4.83398 -49 -6.50098s-25 -2.5 -31 -2.5
c-3.33301 0 -8.16602 1 -14.499 3s-12.5 4.66699 -18.5 8s-11.167 7.16602 -15.5 11.499s-6.5 8.83301 -6.5 13.5c0 14.667 0.166992 27.667 0.5 39s0.5 22.666 0.5 33.999s0.333008 23.666 1 36.999s1 29.166 1 47.499s0.166992 40.166 0.5 65.499s0.5 56 0.5 92
c-0.666992 0 -2.66699 -0.166992 -6 -0.5s-7.16602 -0.666016 -11.499 -0.999023s-8.33301 -1 -12 -2s-5.83398 -1.83301 -6.50098 -2.5c-0.666992 1.33301 -1.66699 3.5 -3 6.5s-2 7.16699 -2 12.5c0 6 1.66699 10.333 5 13s7.16602 4.5 11.499 5.5s9 1.5 14 1.5
s9.16699 0.333008 12.5 1v180c0 12.667 1 22.5 3 29.5s11 10.5 27 10.5c12.667 0 21.834 -2.33301 27.501 -7s8.5 -13.667 8.5 -27c0 -59.333 1 -120 3 -182c9.33301 0.666992 20.833 1 34.5 1h40.5c13.333 0 25.333 0.166992 36 0.5s17.667 1.16602 21 2.49902
c4 -2 7 -5 9 -9s2.66699 -8 2 -12s-2.5 -7.5 -5.5 -10.5s-7.5 -4.5 -13.5 -4.5h-25.5h-37c-13 0 -25.333 -0.166992 -37 -0.5s-20.167 -0.833008 -25.5 -1.5c0 -28.667 0.5 -55.334 1.5 -80.001l3 -73.5c1 -24.333 1.66699 -49.166 2 -74.499
s0.166016 -52.333 -0.500977 -81c12.667 -0.666992 29.5 0.5 50.5 3.5s41.667 6.83301 62 11.5s38.166 9.33398 53.499 14.001s23.666 8.66699 24.999 12zM15.002 592.005c0 4.66699 7.49902 9.83496 22.499 15.502s33.667 10.667 56 15s46.833 8 73.5 11
s51.667 4.16699 75 3.5s43.333 -3.16699 60 -7.5s26.334 -11.5 29.001 -21.5c2 -7.33301 1.33301 -13.833 -2 -19.5s-8 -9.16699 -14 -10.5c-15.333 10.667 -36.5 17.167 -63.5 19.5s-54.833 2.16602 -83.5 -0.500977s-55.667 -6.83398 -81 -12.501s-44 -10.834 -56 -15.501
c-3.33301 -1.33301 -6.83301 0.833984 -10.5 6.50098s-5.5 11.167 -5.5 16.5zM191.001 748.006c4 -2.66699 4.83301 -5.99902 2.5 -9.99902s-5.83301 -7.33301 -10.5 -10c-10 -4.66699 -21.333 -4.66699 -34 0c-2.66699 1.33301 -7.33398 3.5 -14.001 6.5
s-13.167 6.5 -19.5 10.5s-12 8.16699 -17 12.5s-7.16699 8.16602 -6.5 11.499c0 4 4 7.16699 12 9.5s13.333 3.5 16 3.5c6.66699 0 12.167 -1.5 16.5 -4.5s9.16602 -6.16699 14.499 -9.5c6.66699 -4 13.334 -7.5 20.001 -10.5s13.334 -6.16699 20.001 -9.5z" />
    <glyph glyph-name="Eacute" unicode="&#xc9;" horiz-adv-x="356" 
d="M318 57c5.33301 0 11.335 -1.66211 18.002 -4.99512s10 -8.66602 10 -15.999c0 -6 -5.16699 -11.833 -15.5 -17.5s-23.5 -10.834 -39.5 -15.501s-33.667 -9.16699 -53 -13.5s-38 -7.83301 -56 -10.5s-34.333 -4.83398 -49 -6.50098s-25 -2.5 -31 -2.5
c-3.33301 0 -8.16602 1 -14.499 3s-12.5 4.66699 -18.5 8s-11.167 7.16602 -15.5 11.499s-6.5 8.83301 -6.5 13.5c0 14.667 0.166992 27.667 0.5 39s0.5 22.666 0.5 33.999s0.333008 23.666 1 36.999s1 29.166 1 47.499s0.166992 40.166 0.5 65.499s0.5 56 0.5 92
c-0.666992 0 -2.66699 -0.166992 -6 -0.5s-7.16602 -0.666016 -11.499 -0.999023s-8.33301 -1 -12 -2s-5.83398 -1.83301 -6.50098 -2.5c-0.666992 1.33301 -1.66699 3.5 -3 6.5s-2 7.16699 -2 12.5c0 6 1.66699 10.333 5 13s7.16602 4.5 11.499 5.5s9 1.5 14 1.5
s9.16699 0.333008 12.5 1v180c0 12.667 1 22.5 3 29.5s11 10.5 27 10.5c12.667 0 21.834 -2.33301 27.501 -7s8.5 -13.667 8.5 -27c0 -59.333 1 -120 3 -182c9.33301 0.666992 20.833 1 34.5 1h40.5c13.333 0 25.333 0.166992 36 0.5s17.667 1.16602 21 2.49902
c4 -2 7 -5 9 -9s2.66699 -8 2 -12s-2.5 -7.5 -5.5 -10.5s-7.5 -4.5 -13.5 -4.5h-25.5h-37c-13 0 -25.333 -0.166992 -37 -0.5s-20.167 -0.833008 -25.5 -1.5c0 -28.667 0.5 -55.334 1.5 -80.001l3 -73.5c1 -24.333 1.66699 -49.166 2 -74.499
s0.166016 -52.333 -0.500977 -81c12.667 -0.666992 29.5 0.5 50.5 3.5s41.667 6.83301 62 11.5s38.166 9.33398 53.499 14.001s23.666 8.66699 24.999 12zM15.002 592.005c0 4.66699 7.49902 9.83496 22.499 15.502s33.667 10.667 56 15s46.833 8 73.5 11
s51.667 4.16699 75 3.5s43.333 -3.16699 60 -7.5s26.334 -11.5 29.001 -21.5c2 -7.33301 1.33301 -13.833 -2 -19.5s-8 -9.16699 -14 -10.5c-15.333 10.667 -36.5 17.167 -63.5 19.5s-54.833 2.16602 -83.5 -0.500977s-55.667 -6.83398 -81 -12.501s-44 -10.834 -56 -15.501
c-3.33301 -1.33301 -6.83301 0.833984 -10.5 6.50098s-5.5 11.167 -5.5 16.5zM224.001 765.006c-7.33301 -7.33301 -17.499 -15.168 -30.499 -23.501s-27.167 -12.833 -42.5 -13.5c-3.33301 0 -6.83301 0.666992 -10.5 2s-6.66699 3.33301 -9 6s-3.33301 5.5 -3 8.5
s3.16602 6.16699 8.49902 9.5c8.66699 6 18.667 11.833 30 17.5s22 9.83398 32 12.501c2 0.666992 5.16699 0.666992 9.5 0s8.33301 -1.66699 12 -3s6.16699 -3.33301 7.5 -6s0 -6 -4 -10z" />
    <glyph glyph-name="Ecircumflex" unicode="&#xca;" horiz-adv-x="356" 
d="M318 57c5.33301 0 11.335 -1.66211 18.002 -4.99512s10 -8.66602 10 -15.999c0 -6 -5.16699 -11.833 -15.5 -17.5s-23.5 -10.834 -39.5 -15.501s-33.667 -9.16699 -53 -13.5s-38 -7.83301 -56 -10.5s-34.333 -4.83398 -49 -6.50098s-25 -2.5 -31 -2.5
c-3.33301 0 -8.16602 1 -14.499 3s-12.5 4.66699 -18.5 8s-11.167 7.16602 -15.5 11.499s-6.5 8.83301 -6.5 13.5c0 14.667 0.166992 27.667 0.5 39s0.5 22.666 0.5 33.999s0.333008 23.666 1 36.999s1 29.166 1 47.499s0.166992 40.166 0.5 65.499s0.5 56 0.5 92
c-0.666992 0 -2.66699 -0.166992 -6 -0.5s-7.16602 -0.666016 -11.499 -0.999023s-8.33301 -1 -12 -2s-5.83398 -1.83301 -6.50098 -2.5c-0.666992 1.33301 -1.66699 3.5 -3 6.5s-2 7.16699 -2 12.5c0 6 1.66699 10.333 5 13s7.16602 4.5 11.499 5.5s9 1.5 14 1.5
s9.16699 0.333008 12.5 1v180c0 12.667 1 22.5 3 29.5s11 10.5 27 10.5c12.667 0 21.834 -2.33301 27.501 -7s8.5 -13.667 8.5 -27c0 -59.333 1 -120 3 -182c9.33301 0.666992 20.833 1 34.5 1h40.5c13.333 0 25.333 0.166992 36 0.5s17.667 1.16602 21 2.49902
c4 -2 7 -5 9 -9s2.66699 -8 2 -12s-2.5 -7.5 -5.5 -10.5s-7.5 -4.5 -13.5 -4.5h-25.5h-37c-13 0 -25.333 -0.166992 -37 -0.5s-20.167 -0.833008 -25.5 -1.5c0 -28.667 0.5 -55.334 1.5 -80.001l3 -73.5c1 -24.333 1.66699 -49.166 2 -74.499
s0.166016 -52.333 -0.500977 -81c12.667 -0.666992 29.5 0.5 50.5 3.5s41.667 6.83301 62 11.5s38.166 9.33398 53.499 14.001s23.666 8.66699 24.999 12zM15.002 592.005c0 4.66699 7.49902 9.83496 22.499 15.502s33.667 10.667 56 15s46.833 8 73.5 11
s51.667 4.16699 75 3.5s43.333 -3.16699 60 -7.5s26.334 -11.5 29.001 -21.5c2 -7.33301 1.33301 -13.833 -2 -19.5s-8 -9.16699 -14 -10.5c-15.333 10.667 -36.5 17.167 -63.5 19.5s-54.833 2.16602 -83.5 -0.500977s-55.667 -6.83398 -81 -12.501s-44 -10.834 -56 -15.501
c-3.33301 -1.33301 -6.83301 0.833984 -10.5 6.50098s-5.5 11.167 -5.5 16.5zM216.001 728.006c-5.33301 8.66699 -10.999 16.333 -16.999 23l-15 17l-23 -21c-9.33301 -8.66699 -17.333 -15.334 -24 -20.001c-1.33301 -1.33301 -4.16602 -2 -8.49902 -2
s-8.83301 0.166992 -13.5 0.5s-8.5 1.33301 -11.5 3s-3.5 3.5 -1.5 5.5c5.33301 7.33301 12.5 15.5 21.5 24.5s16.167 16.833 21.5 23.5l12.5 14.5c3.66699 4.33301 9.16699 6.83301 16.5 7.5s14.166 -0.5 20.499 -3.5s12 -7 17 -12s9.83301 -10.667 14.5 -17
s9 -11.833 13 -16.5l12 -14c4.66699 -5.33301 4.33398 -9.66602 -0.999023 -12.999c-4.66699 -3.33301 -10.334 -5 -17.001 -5s-12.334 1.66699 -17.001 5z" />
    <glyph glyph-name="Edieresis" unicode="&#xcb;" horiz-adv-x="356" 
d="M318 57c5.33301 0 11.335 -1.66211 18.002 -4.99512s10 -8.66602 10 -15.999c0 -6 -5.16699 -11.833 -15.5 -17.5s-23.5 -10.834 -39.5 -15.501s-33.667 -9.16699 -53 -13.5s-38 -7.83301 -56 -10.5s-34.333 -4.83398 -49 -6.50098s-25 -2.5 -31 -2.5
c-3.33301 0 -8.16602 1 -14.499 3s-12.5 4.66699 -18.5 8s-11.167 7.16602 -15.5 11.499s-6.5 8.83301 -6.5 13.5c0 14.667 0.166992 27.667 0.5 39s0.5 22.666 0.5 33.999s0.333008 23.666 1 36.999s1 29.166 1 47.499s0.166992 40.166 0.5 65.499s0.5 56 0.5 92
c-0.666992 0 -2.66699 -0.166992 -6 -0.5s-7.16602 -0.666016 -11.499 -0.999023s-8.33301 -1 -12 -2s-5.83398 -1.83301 -6.50098 -2.5c-0.666992 1.33301 -1.66699 3.5 -3 6.5s-2 7.16699 -2 12.5c0 6 1.66699 10.333 5 13s7.16602 4.5 11.499 5.5s9 1.5 14 1.5
s9.16699 0.333008 12.5 1v180c0 12.667 1 22.5 3 29.5s11 10.5 27 10.5c12.667 0 21.834 -2.33301 27.501 -7s8.5 -13.667 8.5 -27c0 -59.333 1 -120 3 -182c9.33301 0.666992 20.833 1 34.5 1h40.5c13.333 0 25.333 0.166992 36 0.5s17.667 1.16602 21 2.49902
c4 -2 7 -5 9 -9s2.66699 -8 2 -12s-2.5 -7.5 -5.5 -10.5s-7.5 -4.5 -13.5 -4.5h-25.5h-37c-13 0 -25.333 -0.166992 -37 -0.5s-20.167 -0.833008 -25.5 -1.5c0 -28.667 0.5 -55.334 1.5 -80.001l3 -73.5c1 -24.333 1.66699 -49.166 2 -74.499
s0.166016 -52.333 -0.500977 -81c12.667 -0.666992 29.5 0.5 50.5 3.5s41.667 6.83301 62 11.5s38.166 9.33398 53.499 14.001s23.666 8.66699 24.999 12zM15.002 592.005c0 4.66699 7.49902 9.83496 22.499 15.502s33.667 10.667 56 15s46.833 8 73.5 11
s51.667 4.16699 75 3.5s43.333 -3.16699 60 -7.5s26.334 -11.5 29.001 -21.5c2 -7.33301 1.33301 -13.833 -2 -19.5s-8 -9.16699 -14 -10.5c-15.333 10.667 -36.5 17.167 -63.5 19.5s-54.833 2.16602 -83.5 -0.500977s-55.667 -6.83398 -81 -12.501s-44 -10.834 -56 -15.501
c-3.33301 -1.33301 -6.83301 0.833984 -10.5 6.50098s-5.5 11.167 -5.5 16.5zM170.001 749.006c-0.666992 -5.33301 -2.5 -9.5 -5.5 -12.5s-6.5 -5 -10.5 -6s-8 -1.5 -12 -1.5s-7.33301 0.333008 -10 1c-9.33301 2 -15.5 7.16699 -18.5 15.5s-2.16699 16.833 2.5 25.5
c2.66699 5.33301 7.5 8.33301 14.5 9s13.167 0.666992 18.5 0c11.333 -1.33301 18 -4.83301 20 -10.5s2.33301 -12.5 1 -20.5zM245.001 756.006c1.33301 -9.33301 -0.999023 -16.333 -6.99902 -21s-13 -7 -21 -7c-10.667 0 -18.5 3 -23.5 9s-6.16699 14.333 -3.5 25
c2 7.33301 5.16699 12 9.5 14s10.166 3 17.499 3c16 0 25.333 -7.66699 28 -23z" />
    <glyph glyph-name="Igrave" unicode="&#xcc;" horiz-adv-x="309" 
d="M188 25c6.66699 0.666992 14.833 1.16895 24.5 1.50195l29.5 1c10 0.333008 19.333 0.833008 28 1.5s15 1.66699 19 3c0 -4 -0.166992 -8.66699 -0.5 -14s-1.83301 -10.5 -4.5 -15.5s-6.5 -9 -11.5 -12s-12.5 -4.16699 -22.5 -3.5
c-19.333 1.33301 -40.833 1.66602 -64.5 0.999023s-46 -2 -67 -4s-39.333 -4.33301 -55 -7s-25.167 -5.33398 -28.5 -8.00098c-6 4.66699 -9 11.334 -9 20.001c0 8 3.16699 13.833 9.5 17.5s13.833 6.5 22.5 8.5s17.667 3.16699 27 3.5s16.666 0.833008 21.999 1.5
c-3.33301 46.667 -5.33301 92.667 -6 138s-0.666992 90.666 0 135.999s1.66699 91 3 137s3 92.667 5 140c-5.33301 -0.666992 -11.833 -1.33398 -19.5 -2.00098s-15.334 -1.66699 -23.001 -3s-15 -3 -22 -5s-12.167 -4 -15.5 -6c-2 0.666992 -4.5 2.33398 -7.5 5.00098
s-5.5 5.66699 -7.5 9s-3 7 -3 11s2 8 6 12c2.66699 2 9.83398 4.33301 21.501 7s25.5 5.16699 41.5 7.5s33.167 4.66602 51.5 6.99902s35.5 4.66602 51.5 6.99902l41.5 6c11.667 1.66699 18.834 3.5 21.501 5.5c5.33301 0 10 -2.16699 14 -6.5s6 -10.166 6 -17.499
c0 -5.33301 -3.66699 -9.66602 -11 -12.999s-15.833 -6 -25.5 -8s-19 -3.5 -28 -4.5s-15.5 -1.5 -19.5 -1.5c2 -32 2.66699 -71 2 -117s-1.5 -94.5 -2.5 -145.5s-1.33301 -102.167 -1 -153.5s2.83301 -98 7.5 -140zM200.999 748.002
c4 -2.66699 4.83301 -5.99902 2.5 -9.99902s-5.83301 -7.33301 -10.5 -10c-10 -4.66699 -21.333 -4.66699 -34 0c-2.66699 1.33301 -7.33398 3.5 -14.001 6.5s-13.167 6.5 -19.5 10.5s-12 8.16699 -17 12.5s-7.16699 8.16602 -6.5 11.499c0 4 4 7.16699 12 9.5
s13.333 3.5 16 3.5c6.66699 0 12.167 -1.5 16.5 -4.5s9.16602 -6.16699 14.499 -9.5c6.66699 -4 13.334 -7.5 20.001 -10.5s13.334 -6.16699 20.001 -9.5z" />
    <glyph glyph-name="Iacute" unicode="&#xcd;" horiz-adv-x="309" 
d="M188 25c6.66699 0.666992 14.833 1.16895 24.5 1.50195l29.5 1c10 0.333008 19.333 0.833008 28 1.5s15 1.66699 19 3c0 -4 -0.166992 -8.66699 -0.5 -14s-1.83301 -10.5 -4.5 -15.5s-6.5 -9 -11.5 -12s-12.5 -4.16699 -22.5 -3.5
c-19.333 1.33301 -40.833 1.66602 -64.5 0.999023s-46 -2 -67 -4s-39.333 -4.33301 -55 -7s-25.167 -5.33398 -28.5 -8.00098c-6 4.66699 -9 11.334 -9 20.001c0 8 3.16699 13.833 9.5 17.5s13.833 6.5 22.5 8.5s17.667 3.16699 27 3.5s16.666 0.833008 21.999 1.5
c-3.33301 46.667 -5.33301 92.667 -6 138s-0.666992 90.666 0 135.999s1.66699 91 3 137s3 92.667 5 140c-5.33301 -0.666992 -11.833 -1.33398 -19.5 -2.00098s-15.334 -1.66699 -23.001 -3s-15 -3 -22 -5s-12.167 -4 -15.5 -6c-2 0.666992 -4.5 2.33398 -7.5 5.00098
s-5.5 5.66699 -7.5 9s-3 7 -3 11s2 8 6 12c2.66699 2 9.83398 4.33301 21.501 7s25.5 5.16699 41.5 7.5s33.167 4.66602 51.5 6.99902s35.5 4.66602 51.5 6.99902l41.5 6c11.667 1.66699 18.834 3.5 21.501 5.5c5.33301 0 10 -2.16699 14 -6.5s6 -10.166 6 -17.499
c0 -5.33301 -3.66699 -9.66602 -11 -12.999s-15.833 -6 -25.5 -8s-19 -3.5 -28 -4.5s-15.5 -1.5 -19.5 -1.5c2 -32 2.66699 -71 2 -117s-1.5 -94.5 -2.5 -145.5s-1.33301 -102.167 -1 -153.5s2.83301 -98 7.5 -140zM199.999 765.002
c-7.33301 -7.33301 -17.499 -15.168 -30.499 -23.501s-27.167 -12.833 -42.5 -13.5c-3.33301 0 -6.83301 0.666992 -10.5 2s-6.66699 3.33301 -9 6s-3.33301 5.5 -3 8.5s3.16602 6.16699 8.49902 9.5c8.66699 6 18.667 11.833 30 17.5s22 9.83398 32 12.501
c2 0.666992 5.16699 0.666992 9.5 0s8.33301 -1.66699 12 -3s6.16699 -3.33301 7.5 -6s0 -6 -4 -10z" />
    <glyph glyph-name="Icircumflex" unicode="&#xce;" horiz-adv-x="309" 
d="M188 25c6.66699 0.666992 14.833 1.16895 24.5 1.50195l29.5 1c10 0.333008 19.333 0.833008 28 1.5s15 1.66699 19 3c0 -4 -0.166992 -8.66699 -0.5 -14s-1.83301 -10.5 -4.5 -15.5s-6.5 -9 -11.5 -12s-12.5 -4.16699 -22.5 -3.5
c-19.333 1.33301 -40.833 1.66602 -64.5 0.999023s-46 -2 -67 -4s-39.333 -4.33301 -55 -7s-25.167 -5.33398 -28.5 -8.00098c-6 4.66699 -9 11.334 -9 20.001c0 8 3.16699 13.833 9.5 17.5s13.833 6.5 22.5 8.5s17.667 3.16699 27 3.5s16.666 0.833008 21.999 1.5
c-3.33301 46.667 -5.33301 92.667 -6 138s-0.666992 90.666 0 135.999s1.66699 91 3 137s3 92.667 5 140c-5.33301 -0.666992 -11.833 -1.33398 -19.5 -2.00098s-15.334 -1.66699 -23.001 -3s-15 -3 -22 -5s-12.167 -4 -15.5 -6c-2 0.666992 -4.5 2.33398 -7.5 5.00098
s-5.5 5.66699 -7.5 9s-3 7 -3 11s2 8 6 12c2.66699 2 9.83398 4.33301 21.501 7s25.5 5.16699 41.5 7.5s33.167 4.66602 51.5 6.99902s35.5 4.66602 51.5 6.99902l41.5 6c11.667 1.66699 18.834 3.5 21.501 5.5c5.33301 0 10 -2.16699 14 -6.5s6 -10.166 6 -17.499
c0 -5.33301 -3.66699 -9.66602 -11 -12.999s-15.833 -6 -25.5 -8s-19 -3.5 -28 -4.5s-15.5 -1.5 -19.5 -1.5c2 -32 2.66699 -71 2 -117s-1.5 -94.5 -2.5 -145.5s-1.33301 -102.167 -1 -153.5s2.83301 -98 7.5 -140zM192.999 728.002
c-5.33301 8.66699 -10.999 16.333 -16.999 23l-15 17l-23 -21c-9.33301 -8.66699 -17.333 -15.334 -24 -20.001c-1.33301 -1.33301 -4.16602 -2 -8.49902 -2s-8.83301 0.166992 -13.5 0.5s-8.5 1.33301 -11.5 3s-3.5 3.5 -1.5 5.5c5.33301 7.33301 12.5 15.5 21.5 24.5
s16.167 16.833 21.5 23.5l12.5 14.5c3.66699 4.33301 9.16699 6.83301 16.5 7.5s14.166 -0.5 20.499 -3.5s12 -7 17 -12s9.83301 -10.667 14.5 -17s9 -11.833 13 -16.5l12 -14c4.66699 -5.33301 4.33398 -9.66602 -0.999023 -12.999
c-4.66699 -3.33301 -10.334 -5 -17.001 -5s-12.334 1.66699 -17.001 5z" />
    <glyph glyph-name="Idieresis" unicode="&#xcf;" horiz-adv-x="309" 
d="M188 25c6.66699 0.666992 14.833 1.16895 24.5 1.50195l29.5 1c10 0.333008 19.333 0.833008 28 1.5s15 1.66699 19 3c0 -4 -0.166992 -8.66699 -0.5 -14s-1.83301 -10.5 -4.5 -15.5s-6.5 -9 -11.5 -12s-12.5 -4.16699 -22.5 -3.5
c-19.333 1.33301 -40.833 1.66602 -64.5 0.999023s-46 -2 -67 -4s-39.333 -4.33301 -55 -7s-25.167 -5.33398 -28.5 -8.00098c-6 4.66699 -9 11.334 -9 20.001c0 8 3.16699 13.833 9.5 17.5s13.833 6.5 22.5 8.5s17.667 3.16699 27 3.5s16.666 0.833008 21.999 1.5
c-3.33301 46.667 -5.33301 92.667 -6 138s-0.666992 90.666 0 135.999s1.66699 91 3 137s3 92.667 5 140c-5.33301 -0.666992 -11.833 -1.33398 -19.5 -2.00098s-15.334 -1.66699 -23.001 -3s-15 -3 -22 -5s-12.167 -4 -15.5 -6c-2 0.666992 -4.5 2.33398 -7.5 5.00098
s-5.5 5.66699 -7.5 9s-3 7 -3 11s2 8 6 12c2.66699 2 9.83398 4.33301 21.501 7s25.5 5.16699 41.5 7.5s33.167 4.66602 51.5 6.99902s35.5 4.66602 51.5 6.99902l41.5 6c11.667 1.66699 18.834 3.5 21.501 5.5c5.33301 0 10 -2.16699 14 -6.5s6 -10.166 6 -17.499
c0 -5.33301 -3.66699 -9.66602 -11 -12.999s-15.833 -6 -25.5 -8s-19 -3.5 -28 -4.5s-15.5 -1.5 -19.5 -1.5c2 -32 2.66699 -71 2 -117s-1.5 -94.5 -2.5 -145.5s-1.33301 -102.167 -1 -153.5s2.83301 -98 7.5 -140zM146.999 749.002
c-0.666992 -5.33301 -2.5 -9.5 -5.5 -12.5s-6.5 -5 -10.5 -6s-8 -1.5 -12 -1.5s-7.33301 0.333008 -10 1c-9.33301 2 -15.5 7.16699 -18.5 15.5s-2.16699 16.833 2.5 25.5c2.66699 5.33301 7.5 8.33301 14.5 9s13.167 0.666992 18.5 0c11.333 -1.33301 18 -4.83301 20 -10.5
s2.33301 -12.5 1 -20.5zM221.999 756.002c1.33301 -9.33301 -0.999023 -16.333 -6.99902 -21s-13 -7 -21 -7c-10.667 0 -18.5 3 -23.5 9s-6.16699 14.333 -3.5 25c2 7.33301 5.16699 12 9.5 14s10.166 3 17.499 3c16 0 25.333 -7.66699 28 -23z" />
    <glyph glyph-name="Eth" unicode="&#xd0;" horiz-adv-x="483" 
d="M103 628c47.333 0 92.168 -11.835 134.501 -35.502s79.5 -54.667 111.5 -93s57.333 -81.833 76 -130.5s28 -98 28 -148c0 -30 -6 -61.167 -18 -93.5s-28.5 -62 -49.5 -89s-45.833 -49.167 -74.5 -66.5s-59.334 -26 -92.001 -26c-5.33301 0 -12.333 1 -21 3
s-17 4.83301 -25 8.5s-15 8.16699 -21 13.5s-9 11.666 -9 18.999c0 3.33301 2 6.33301 6 9c-6 -0.666992 -12.833 -0.666992 -20.5 0s-13.834 3.66699 -18.501 9c-1.33301 2 -2.5 5.83301 -3.5 11.5s-1.66699 11.834 -2 18.501s-0.833008 13.167 -1.5 19.5
s-1 10.833 -1 13.5c-2 16.667 -4.5 33.167 -7.5 49.5l-9.5 49.5c-10 0.666992 -18.5 1.16699 -25.5 1.5s-12.167 0.833008 -15.5 1.5c-5.33301 0.666992 -11 2 -17 4s-9 6.33301 -9 13c0 10 3.5 16.333 10.5 19s15.167 4.33398 24.5 5.00098
c2.66699 0 5.66699 0.166992 9 0.5s7.33301 0.5 12 0.5l-22 80c-7.33301 26.667 -14.166 53.334 -20.499 80.001s-11.5 53.5 -15.5 80.5s-6 54.167 -6 81.5c0 30.667 8 53.5 24 68.5s39 22.5 69 22.5zM203.002 213.998c8.66699 0 16.832 -1.49902 24.499 -4.49902
s11.5 -10.167 11.5 -21.5c0 -6.66699 -7 -11.334 -21 -14.001s-30.667 -4.33398 -50 -5.00098v-37c0 -18.667 0.833008 -37.167 2.5 -55.5s2.5 -36.5 2.5 -54.5c0 -7.33301 -2 -12.666 -6 -15.999c6.66699 1.33301 13.834 1.33301 21.501 0s13.5 -5 17.5 -11
c6 -6 14.167 -8.5 24.5 -7.5s18.833 3.5 25.5 7.5c46 25.333 78.833 58 98.5 98s29.5 86.667 29.5 140c0 22.667 -3.33301 47.334 -10 74.001s-16.167 53.667 -28.5 81s-27 53.666 -44 78.999s-35.833 47.833 -56.5 67.5s-43 35.334 -67 47.001s-48.667 17.5 -74 17.5
c-8.66699 0 -15.5 -2 -20.5 -6s-8.83301 -9.16699 -11.5 -15.5s-4.5 -13.166 -5.5 -20.499s-1.5 -14.333 -1.5 -21c0 -18 1.5 -37.333 4.5 -58s6.83301 -41.5 11.5 -62.5s9.83398 -41.5 15.501 -61.5l15.5 -57c1.33301 16 2.33301 32.167 3 48.5s1 32.5 1 48.5
c0 4.66699 -1 6.83398 -3 6.50098s-4.33301 0.833984 -7 3.50098c1.33301 8.66699 2.33301 18.167 3 28.5s2 20.166 4 29.499s5.16699 17.333 9.5 24s11.166 11 20.499 13c7.33301 1.33301 13 0.166016 17 -3.50098s7 -8.33398 9 -14.001s3.33301 -11.834 4 -18.501
s1 -12.334 1 -17.001c0 -39.333 -0.666992 -78.166 -2 -116.499s-2.33301 -76.833 -3 -115.5h34z" />
    <glyph glyph-name="Ntilde" unicode="&#xd1;" horiz-adv-x="402" 
d="M115 575c20.667 -85.333 47.3291 -168.498 79.9961 -249.498s68 -160.833 106 -239.5c8 35.333 11.667 72 11 110s-1 75 -1 111c0 14.667 -0.333008 36.667 -1 66s-1 59.5 -1 90.5s0.333008 59.5 1 85.5s2 43.333 4 52c1.33301 6 4.83301 11 10.5 15s11.667 6.66699 18 8
s12.333 1 18 -1s9.5 -6 11.5 -12c-2 -11.333 -3.5 -31.666 -4.5 -60.999s-1.5 -62.333 -1.5 -99v-112.5v-101.5c0 -9.33301 0.166992 -21.833 0.5 -37.5s0.166016 -32.5 -0.500977 -50.5s-2.16699 -36.167 -4.5 -54.5s-6.16602 -35 -11.499 -50s-12.5 -27.167 -21.5 -36.5
s-20.5 -14 -34.5 -14c-12.667 0 -26 7.83301 -40 23.5s-28.167 35.5 -42.5 59.5s-28.166 50.833 -41.499 80.5l-37.5 86c-11.667 27.667 -21.667 53 -30 76l-18.5 51.5c-2.66699 -14 -4.83398 -33 -6.50098 -57s-3.16699 -49.833 -4.5 -77.5s-2.16602 -55.5 -2.49902 -83.5
s0.166992 -53.5 1.5 -76.5s3.5 -41.833 6.5 -56.5s7.16699 -22 12.5 -22c-0.666992 -2 -1.16699 -4.83301 -1.5 -8.5s-1.5 -7.5 -3.5 -11.5s-4.66699 -7.5 -8 -10.5s-8.33301 -4.83301 -15 -5.5c-11.333 -0.666992 -19.833 2.16602 -25.5 8.49902
s-9.66699 14.166 -12 23.499s-3.66602 19.166 -3.99902 29.499s-0.5 19.5 -0.5 27.5c0 33.333 1.33301 69.5 4 108.5s5.83398 78.333 9.50098 118s6.83398 79 9.50098 118s4 75.167 4 108.5c0 11.333 -2 22.5 -6 33.5s-6 22.167 -6 33.5c0 9.33301 4.33301 16.166 13 20.499
s16.667 6.5 24 6.5c4 0 8.33301 -0.333008 13 -1s9.16699 -1.66699 13.5 -3s8 -3.66602 11 -6.99902s4.5 -7.33301 4.5 -12zM283.995 783.002c-1.33301 -15.333 -5.83398 -28.3359 -13.501 -39.0029s-20.167 -16 -37.5 -16c-10 0 -17.5 2 -22.5 6s-9 8.5 -12 13.5
s-6 9.66699 -9 14s-7.5 6.5 -13.5 6.5c-9.33301 0 -16.166 -4.16699 -20.499 -12.5s-4.5 -14.5 -0.5 -18.5c-1.33301 -4.66699 -5 -7.66699 -11 -9s-10.667 1 -14 7c-3.33301 6.66699 -4.5 13.667 -3.5 21s3.66699 13.833 8 19.5s9.83301 10.334 16.5 14.001
s13.667 5.5 21 5.5c10 0 18.167 -2.16699 24.5 -6.5s11.5 -9.16602 15.5 -14.499l10.5 -14.5c3 -4.33301 6.5 -6.5 10.5 -6.5c7.33301 0 13 4.33301 17 13s5.33301 16.334 4 23.001c4.66699 2.66699 11 4 19 4s11.667 -3.33301 11 -10z" />
    <glyph glyph-name="Ograve" unicode="&#xd2;" horiz-adv-x="487" 
d="M292 590c26.667 0 50.3389 -5.33691 71.0059 -16.0039s38 -24.667 52 -42s24.5 -37.5 31.5 -60.5s10.5 -46.833 10.5 -71.5c0 -24 -3.16699 -51.5 -9.5 -82.5s-15.5 -62.5 -27.5 -94.5s-26.5 -63.333 -43.5 -94s-36.333 -58 -58 -82s-45.334 -43.333 -71.001 -58
s-52.834 -22 -81.501 -22c-34.667 0 -62.334 9.33301 -83.001 28s-36.334 41.834 -47.001 69.501s-17.667 57.5 -21 89.5s-5 61 -5 87c0 17.333 1.16699 39.166 3.5 65.499s6.16602 54 11.499 83s12.5 58.167 21.5 87.5s20.333 55.5 34 78.5s29.5 41.833 47.5 56.5
s39 22 63 22c11.333 0 19.166 -3.16699 23.499 -9.5s5.5 -12.833 3.5 -19.5s-7.16699 -12.334 -15.5 -17.001s-18.833 -5.33398 -31.5 -2.00098c-18 -19.333 -33 -43.166 -45 -71.499s-21.667 -58 -29 -89s-12.5 -62.167 -15.5 -93.5s-4.5 -59.666 -4.5 -84.999
c0 -8 0.5 -19.667 1.5 -35s2.83301 -32 5.5 -50s6 -36.333 10 -55s9.33301 -35.5 16 -50.5s14.334 -27.333 23.001 -37s18.667 -14.5 30 -14.5c20 0 39.333 7.33301 58 22s36.167 33.834 52.5 57.501s31.166 50.167 44.499 79.5s24.666 58.5 33.999 87.5
s16.666 56.333 21.999 82s8 46.834 8 63.501c0 12 -1.66699 26.833 -5 44.5s-8.66602 34.834 -15.999 51.501s-16.666 30.834 -27.999 42.501s-24.666 17.5 -39.999 17.5c-17.333 0 -32.5 -7.66699 -45.5 -23s-23.5 -33.5 -31.5 -54.5s-13.833 -42.167 -17.5 -63.5
s-4.83398 -38.333 -3.50098 -51c-4 -4 -9.5 -7.33301 -16.5 -10s-14 -3.66699 -21 -3s-13.167 3.83398 -18.5 9.50098s-8 15.5 -8 29.5c0 22.667 3.5 46.167 10.5 70.5s17.333 46.166 31 65.499s30.5 35.333 50.5 48s43 19 69 19zM290.005 747.996
c4 -2.66699 4.83301 -5.99902 2.5 -9.99902s-5.83301 -7.33301 -10.5 -10c-10 -4.66699 -21.333 -4.66699 -34 0c-2.66699 1.33301 -7.33398 3.5 -14.001 6.5s-13.167 6.5 -19.5 10.5s-12 8.16699 -17 12.5s-7.16699 8.16602 -6.5 11.499c0 4 4 7.16699 12 9.5
s13.333 3.5 16 3.5c6.66699 0 12.167 -1.5 16.5 -4.5s9.16602 -6.16699 14.499 -9.5c6.66699 -4 13.334 -7.5 20.001 -10.5s13.334 -6.16699 20.001 -9.5z" />
    <glyph glyph-name="Oacute" unicode="&#xd3;" horiz-adv-x="487" 
d="M292 590c26.667 0 50.3389 -5.33691 71.0059 -16.0039s38 -24.667 52 -42s24.5 -37.5 31.5 -60.5s10.5 -46.833 10.5 -71.5c0 -24 -3.16699 -51.5 -9.5 -82.5s-15.5 -62.5 -27.5 -94.5s-26.5 -63.333 -43.5 -94s-36.333 -58 -58 -82s-45.334 -43.333 -71.001 -58
s-52.834 -22 -81.501 -22c-34.667 0 -62.334 9.33301 -83.001 28s-36.334 41.834 -47.001 69.501s-17.667 57.5 -21 89.5s-5 61 -5 87c0 17.333 1.16699 39.166 3.5 65.499s6.16602 54 11.499 83s12.5 58.167 21.5 87.5s20.333 55.5 34 78.5s29.5 41.833 47.5 56.5
s39 22 63 22c11.333 0 19.166 -3.16699 23.499 -9.5s5.5 -12.833 3.5 -19.5s-7.16699 -12.334 -15.5 -17.001s-18.833 -5.33398 -31.5 -2.00098c-18 -19.333 -33 -43.166 -45 -71.499s-21.667 -58 -29 -89s-12.5 -62.167 -15.5 -93.5s-4.5 -59.666 -4.5 -84.999
c0 -8 0.5 -19.667 1.5 -35s2.83301 -32 5.5 -50s6 -36.333 10 -55s9.33301 -35.5 16 -50.5s14.334 -27.333 23.001 -37s18.667 -14.5 30 -14.5c20 0 39.333 7.33301 58 22s36.167 33.834 52.5 57.501s31.166 50.167 44.499 79.5s24.666 58.5 33.999 87.5
s16.666 56.333 21.999 82s8 46.834 8 63.501c0 12 -1.66699 26.833 -5 44.5s-8.66602 34.834 -15.999 51.501s-16.666 30.834 -27.999 42.501s-24.666 17.5 -39.999 17.5c-17.333 0 -32.5 -7.66699 -45.5 -23s-23.5 -33.5 -31.5 -54.5s-13.833 -42.167 -17.5 -63.5
s-4.83398 -38.333 -3.50098 -51c-4 -4 -9.5 -7.33301 -16.5 -10s-14 -3.66699 -21 -3s-13.167 3.83398 -18.5 9.50098s-8 15.5 -8 29.5c0 22.667 3.5 46.167 10.5 70.5s17.333 46.166 31 65.499s30.5 35.333 50.5 48s43 19 69 19zM289.005 764.996
c-7.33301 -7.33301 -17.499 -15.168 -30.499 -23.501s-27.167 -12.833 -42.5 -13.5c-3.33301 0 -6.83301 0.666992 -10.5 2s-6.66699 3.33301 -9 6s-3.33301 5.5 -3 8.5s3.16602 6.16699 8.49902 9.5c8.66699 6 18.667 11.833 30 17.5s22 9.83398 32 12.501
c2 0.666992 5.16699 0.666992 9.5 0s8.33301 -1.66699 12 -3s6.16699 -3.33301 7.5 -6s0 -6 -4 -10z" />
    <glyph glyph-name="Ocircumflex" unicode="&#xd4;" horiz-adv-x="487" 
d="M292 590c26.667 0 50.3389 -5.33691 71.0059 -16.0039s38 -24.667 52 -42s24.5 -37.5 31.5 -60.5s10.5 -46.833 10.5 -71.5c0 -24 -3.16699 -51.5 -9.5 -82.5s-15.5 -62.5 -27.5 -94.5s-26.5 -63.333 -43.5 -94s-36.333 -58 -58 -82s-45.334 -43.333 -71.001 -58
s-52.834 -22 -81.501 -22c-34.667 0 -62.334 9.33301 -83.001 28s-36.334 41.834 -47.001 69.501s-17.667 57.5 -21 89.5s-5 61 -5 87c0 17.333 1.16699 39.166 3.5 65.499s6.16602 54 11.499 83s12.5 58.167 21.5 87.5s20.333 55.5 34 78.5s29.5 41.833 47.5 56.5
s39 22 63 22c11.333 0 19.166 -3.16699 23.499 -9.5s5.5 -12.833 3.5 -19.5s-7.16699 -12.334 -15.5 -17.001s-18.833 -5.33398 -31.5 -2.00098c-18 -19.333 -33 -43.166 -45 -71.499s-21.667 -58 -29 -89s-12.5 -62.167 -15.5 -93.5s-4.5 -59.666 -4.5 -84.999
c0 -8 0.5 -19.667 1.5 -35s2.83301 -32 5.5 -50s6 -36.333 10 -55s9.33301 -35.5 16 -50.5s14.334 -27.333 23.001 -37s18.667 -14.5 30 -14.5c20 0 39.333 7.33301 58 22s36.167 33.834 52.5 57.501s31.166 50.167 44.499 79.5s24.666 58.5 33.999 87.5
s16.666 56.333 21.999 82s8 46.834 8 63.501c0 12 -1.66699 26.833 -5 44.5s-8.66602 34.834 -15.999 51.501s-16.666 30.834 -27.999 42.501s-24.666 17.5 -39.999 17.5c-17.333 0 -32.5 -7.66699 -45.5 -23s-23.5 -33.5 -31.5 -54.5s-13.833 -42.167 -17.5 -63.5
s-4.83398 -38.333 -3.50098 -51c-4 -4 -9.5 -7.33301 -16.5 -10s-14 -3.66699 -21 -3s-13.167 3.83398 -18.5 9.50098s-8 15.5 -8 29.5c0 22.667 3.5 46.167 10.5 70.5s17.333 46.166 31 65.499s30.5 35.333 50.5 48s43 19 69 19zM282.005 727.996
c-5.33301 8.66699 -10.999 16.333 -16.999 23l-15 17l-23 -21c-9.33301 -8.66699 -17.333 -15.334 -24 -20.001c-1.33301 -1.33301 -4.16602 -2 -8.49902 -2s-8.83301 0.166992 -13.5 0.5s-8.5 1.33301 -11.5 3s-3.5 3.5 -1.5 5.5c5.33301 7.33301 12.5 15.5 21.5 24.5
s16.167 16.833 21.5 23.5l12.5 14.5c3.66699 4.33301 9.16699 6.83301 16.5 7.5s14.166 -0.5 20.499 -3.5s12 -7 17 -12s9.83301 -10.667 14.5 -17s9 -11.833 13 -16.5l12 -14c4.66699 -5.33301 4.33398 -9.66602 -0.999023 -12.999
c-4.66699 -3.33301 -10.334 -5 -17.001 -5s-12.334 1.66699 -17.001 5z" />
    <glyph glyph-name="Otilde" unicode="&#xd5;" horiz-adv-x="487" 
d="M292 590c26.667 0 50.3389 -5.33691 71.0059 -16.0039s38 -24.667 52 -42s24.5 -37.5 31.5 -60.5s10.5 -46.833 10.5 -71.5c0 -24 -3.16699 -51.5 -9.5 -82.5s-15.5 -62.5 -27.5 -94.5s-26.5 -63.333 -43.5 -94s-36.333 -58 -58 -82s-45.334 -43.333 -71.001 -58
s-52.834 -22 -81.501 -22c-34.667 0 -62.334 9.33301 -83.001 28s-36.334 41.834 -47.001 69.501s-17.667 57.5 -21 89.5s-5 61 -5 87c0 17.333 1.16699 39.166 3.5 65.499s6.16602 54 11.499 83s12.5 58.167 21.5 87.5s20.333 55.5 34 78.5s29.5 41.833 47.5 56.5
s39 22 63 22c11.333 0 19.166 -3.16699 23.499 -9.5s5.5 -12.833 3.5 -19.5s-7.16699 -12.334 -15.5 -17.001s-18.833 -5.33398 -31.5 -2.00098c-18 -19.333 -33 -43.166 -45 -71.499s-21.667 -58 -29 -89s-12.5 -62.167 -15.5 -93.5s-4.5 -59.666 -4.5 -84.999
c0 -8 0.5 -19.667 1.5 -35s2.83301 -32 5.5 -50s6 -36.333 10 -55s9.33301 -35.5 16 -50.5s14.334 -27.333 23.001 -37s18.667 -14.5 30 -14.5c20 0 39.333 7.33301 58 22s36.167 33.834 52.5 57.501s31.166 50.167 44.499 79.5s24.666 58.5 33.999 87.5
s16.666 56.333 21.999 82s8 46.834 8 63.501c0 12 -1.66699 26.833 -5 44.5s-8.66602 34.834 -15.999 51.501s-16.666 30.834 -27.999 42.501s-24.666 17.5 -39.999 17.5c-17.333 0 -32.5 -7.66699 -45.5 -23s-23.5 -33.5 -31.5 -54.5s-13.833 -42.167 -17.5 -63.5
s-4.83398 -38.333 -3.50098 -51c-4 -4 -9.5 -7.33301 -16.5 -10s-14 -3.66699 -21 -3s-13.167 3.83398 -18.5 9.50098s-8 15.5 -8 29.5c0 22.667 3.5 46.167 10.5 70.5s17.333 46.166 31 65.499s30.5 35.333 50.5 48s43 19 69 19zM327.005 782.996
c-1.33301 -15.333 -5.83398 -28.3359 -13.501 -39.0029s-20.167 -16 -37.5 -16c-10 0 -17.5 2 -22.5 6s-9 8.5 -12 13.5s-6 9.66699 -9 14s-7.5 6.5 -13.5 6.5c-9.33301 0 -16.166 -4.16699 -20.499 -12.5s-4.5 -14.5 -0.5 -18.5c-1.33301 -4.66699 -5 -7.66699 -11 -9
s-10.667 1 -14 7c-3.33301 6.66699 -4.5 13.667 -3.5 21s3.66699 13.833 8 19.5s9.83301 10.334 16.5 14.001s13.667 5.5 21 5.5c10 0 18.167 -2.16699 24.5 -6.5s11.5 -9.16602 15.5 -14.499l10.5 -14.5c3 -4.33301 6.5 -6.5 10.5 -6.5c7.33301 0 13 4.33301 17 13
s5.33301 16.334 4 23.001c4.66699 2.66699 11 4 19 4s11.667 -3.33301 11 -10z" />
    <glyph glyph-name="Odieresis" unicode="&#xd6;" horiz-adv-x="487" 
d="M292 590c26.667 0 50.3389 -5.33691 71.0059 -16.0039s38 -24.667 52 -42s24.5 -37.5 31.5 -60.5s10.5 -46.833 10.5 -71.5c0 -24 -3.16699 -51.5 -9.5 -82.5s-15.5 -62.5 -27.5 -94.5s-26.5 -63.333 -43.5 -94s-36.333 -58 -58 -82s-45.334 -43.333 -71.001 -58
s-52.834 -22 -81.501 -22c-34.667 0 -62.334 9.33301 -83.001 28s-36.334 41.834 -47.001 69.501s-17.667 57.5 -21 89.5s-5 61 -5 87c0 17.333 1.16699 39.166 3.5 65.499s6.16602 54 11.499 83s12.5 58.167 21.5 87.5s20.333 55.5 34 78.5s29.5 41.833 47.5 56.5
s39 22 63 22c11.333 0 19.166 -3.16699 23.499 -9.5s5.5 -12.833 3.5 -19.5s-7.16699 -12.334 -15.5 -17.001s-18.833 -5.33398 -31.5 -2.00098c-18 -19.333 -33 -43.166 -45 -71.499s-21.667 -58 -29 -89s-12.5 -62.167 -15.5 -93.5s-4.5 -59.666 -4.5 -84.999
c0 -8 0.5 -19.667 1.5 -35s2.83301 -32 5.5 -50s6 -36.333 10 -55s9.33301 -35.5 16 -50.5s14.334 -27.333 23.001 -37s18.667 -14.5 30 -14.5c20 0 39.333 7.33301 58 22s36.167 33.834 52.5 57.501s31.166 50.167 44.499 79.5s24.666 58.5 33.999 87.5
s16.666 56.333 21.999 82s8 46.834 8 63.501c0 12 -1.66699 26.833 -5 44.5s-8.66602 34.834 -15.999 51.501s-16.666 30.834 -27.999 42.501s-24.666 17.5 -39.999 17.5c-17.333 0 -32.5 -7.66699 -45.5 -23s-23.5 -33.5 -31.5 -54.5s-13.833 -42.167 -17.5 -63.5
s-4.83398 -38.333 -3.50098 -51c-4 -4 -9.5 -7.33301 -16.5 -10s-14 -3.66699 -21 -3s-13.167 3.83398 -18.5 9.50098s-8 15.5 -8 29.5c0 22.667 3.5 46.167 10.5 70.5s17.333 46.166 31 65.499s30.5 35.333 50.5 48s43 19 69 19zM236.005 748.996
c-0.666992 -5.33301 -2.5 -9.5 -5.5 -12.5s-6.5 -5 -10.5 -6s-8 -1.5 -12 -1.5s-7.33301 0.333008 -10 1c-9.33301 2 -15.5 7.16699 -18.5 15.5s-2.16699 16.833 2.5 25.5c2.66699 5.33301 7.5 8.33301 14.5 9s13.167 0.666992 18.5 0c11.333 -1.33301 18 -4.83301 20 -10.5
s2.33301 -12.5 1 -20.5zM311.005 755.996c1.33301 -9.33301 -0.999023 -16.333 -6.99902 -21s-13 -7 -21 -7c-10.667 0 -18.5 3 -23.5 9s-6.16699 14.333 -3.5 25c2 7.33301 5.16699 12 9.5 14s10.166 3 17.499 3c16 0 25.333 -7.66699 28 -23z" />
    <glyph glyph-name="Oslash" unicode="&#xd8;" horiz-adv-x="487" 
d="M391 592c-1.33301 -4.66699 -3.16113 -9.16602 -5.49414 -13.499s-4.5 -8.83301 -6.5 -13.5c25.333 -17.333 44.666 -40.666 57.999 -69.999s20 -61 20 -95c0 -24 -3.16699 -51.5 -9.5 -82.5s-15.5 -62.5 -27.5 -94.5s-26.5 -63.333 -43.5 -94s-36.333 -58 -58 -82
s-45.334 -43.333 -71.001 -58s-52.834 -22 -81.501 -22c-21.333 0 -41.333 4.33301 -60 13c-5.33301 -6.66699 -11.333 -11.5 -18 -14.5s-15.667 -3.83301 -27 -2.5c-4.66699 0.666992 -10 2.16699 -16 4.5s-9.33301 6.5 -10 12.5c-0.666992 5.33301 1 11 5 17
s7 11.333 9 16l6 13c-10 14.667 -17.833 31 -23.5 49s-10.167 36.5 -13.5 55.5s-5.5 38 -6.5 57s-1.5 36.833 -1.5 53.5c0 17.333 1.16699 39.166 3.5 65.499s6.16602 54 11.499 83s12.5 58.167 21.5 87.5s20.333 55.5 34 78.5s29.5 41.833 47.5 56.5s39 22 63 22
c11.333 0 19.166 -3.16699 23.499 -9.5s5.5 -12.833 3.5 -19.5s-7.16699 -12.334 -15.5 -17.001s-18.833 -5.33398 -31.5 -2.00098c-18 -19.333 -33 -43.166 -45 -71.499s-21.667 -58 -29 -89s-12.5 -62.167 -15.5 -93.5s-4.5 -59.666 -4.5 -84.999
c0 -12.667 1.16699 -32.334 3.5 -59.001s6.83301 -53.667 13.5 -81l126 269l41 88.5c14 29 28.667 57.833 44 86.5c-5.33301 1.33301 -9.33301 2 -12 2c-17.333 0 -32.5 -7.66699 -45.5 -23s-23.5 -33.5 -31.5 -54.5s-13.833 -42.167 -17.5 -63.5
s-4.83398 -38.333 -3.50098 -51c-4 -4 -9.5 -7.33301 -16.5 -10s-14 -3.66699 -21 -3s-13.167 3.83398 -18.5 9.50098s-8 15.5 -8 29.5c0 22.667 3.5 46.167 10.5 70.5s17.333 46.166 31 65.499s30.5 35.333 50.5 48s43 19 69 19c11.333 0 22 -1 32 -3
c6.66699 8.66699 13.667 14.667 21 18c2 0.666992 5.83301 1.16699 11.5 1.5s11.167 0 16.5 -1s9.83301 -2.5 13.5 -4.5s5.16699 -5 4.5 -9zM382.005 397.001c0 14 -2.49805 31.8311 -7.49805 53.498s-12.5 41.167 -22.5 58.5l-75 -162l-74 -162l-36.5 -80.5l-38.5 -80.5
c10.667 -12.667 22.334 -19 35.001 -19c20 0 39.333 7.33301 58 22s36.167 33.834 52.5 57.501s31.166 50.167 44.499 79.5s24.666 58.5 33.999 87.5s16.666 56.333 21.999 82s8 46.834 8 63.501z" />
    <glyph glyph-name="Ugrave" unicode="&#xd9;" horiz-adv-x="446" 
d="M375 629c10.667 0 18.8379 -3.50098 24.5049 -10.501s9.66699 -15.5 12 -25.5s3.5 -20.5 3.5 -31.5v-28.5c0 -24.667 -1.5 -55 -4.5 -91s-8 -73.833 -15 -113.5s-16.5 -79 -28.5 -118s-27.167 -74 -45.5 -105s-40.166 -56.167 -65.499 -75.5s-55 -29 -89 -29
c-24.667 0 -45.834 5.16699 -63.501 15.5s-32.334 24 -44.001 41s-20.834 36.5 -27.501 58.5s-11.667 44.5 -15 67.5s-5.33301 45.833 -6 68.5s-1 43 -1 61c0 8.66699 0.166992 21.834 0.5 39.501s1.16602 37.334 2.49902 59.001s3.33301 44 6 67s6.66699 43.833 12 62.5
s12 34 20 46s17.667 18 29 18c6 0 12 -0.5 18 -1.5s11.667 -6.16699 17 -15.5c-12.667 -40 -20.667 -82 -24 -126s-5 -90 -5 -138c0 -8.66699 0.333008 -21.667 1 -39s2.16699 -36.5 4.5 -57.5s5.5 -42.5 9.5 -64.5s9.16699 -42.167 15.5 -60.5s14 -33.333 23 -45
s19.833 -17.5 32.5 -17.5c21.333 0 40.666 10 57.999 30s32.833 45.833 46.5 77.5s25.667 66.667 36 105s18.833 75.666 25.5 111.999s11.667 69.833 15 100.5s5 53.667 5 69c0 14.667 -0.833008 30.5 -2.5 47.5s-4.16699 29.167 -7.5 36.5c0 4.66699 3.66699 7.66699 11 9
s12.666 2 15.999 2zM269.004 747.999c4 -2.66699 4.83301 -5.99902 2.5 -9.99902s-5.83301 -7.33301 -10.5 -10c-10 -4.66699 -21.333 -4.66699 -34 0c-2.66699 1.33301 -7.33398 3.5 -14.001 6.5s-13.167 6.5 -19.5 10.5s-12 8.16699 -17 12.5
s-7.16699 8.16602 -6.5 11.499c0 4 4 7.16699 12 9.5s13.333 3.5 16 3.5c6.66699 0 12.167 -1.5 16.5 -4.5s9.16602 -6.16699 14.499 -9.5c6.66699 -4 13.334 -7.5 20.001 -10.5s13.334 -6.16699 20.001 -9.5z" />
    <glyph glyph-name="Uacute" unicode="&#xda;" horiz-adv-x="446" 
d="M375 629c10.667 0 18.8379 -3.50098 24.5049 -10.501s9.66699 -15.5 12 -25.5s3.5 -20.5 3.5 -31.5v-28.5c0 -24.667 -1.5 -55 -4.5 -91s-8 -73.833 -15 -113.5s-16.5 -79 -28.5 -118s-27.167 -74 -45.5 -105s-40.166 -56.167 -65.499 -75.5s-55 -29 -89 -29
c-24.667 0 -45.834 5.16699 -63.501 15.5s-32.334 24 -44.001 41s-20.834 36.5 -27.501 58.5s-11.667 44.5 -15 67.5s-5.33301 45.833 -6 68.5s-1 43 -1 61c0 8.66699 0.166992 21.834 0.5 39.501s1.16602 37.334 2.49902 59.001s3.33301 44 6 67s6.66699 43.833 12 62.5
s12 34 20 46s17.667 18 29 18c6 0 12 -0.5 18 -1.5s11.667 -6.16699 17 -15.5c-12.667 -40 -20.667 -82 -24 -126s-5 -90 -5 -138c0 -8.66699 0.333008 -21.667 1 -39s2.16699 -36.5 4.5 -57.5s5.5 -42.5 9.5 -64.5s9.16699 -42.167 15.5 -60.5s14 -33.333 23 -45
s19.833 -17.5 32.5 -17.5c21.333 0 40.666 10 57.999 30s32.833 45.833 46.5 77.5s25.667 66.667 36 105s18.833 75.666 25.5 111.999s11.667 69.833 15 100.5s5 53.667 5 69c0 14.667 -0.833008 30.5 -2.5 47.5s-4.16699 29.167 -7.5 36.5c0 4.66699 3.66699 7.66699 11 9
s12.666 2 15.999 2zM269.004 764.999c-7.33301 -7.33301 -17.499 -15.168 -30.499 -23.501s-27.167 -12.833 -42.5 -13.5c-3.33301 0 -6.83301 0.666992 -10.5 2s-6.66699 3.33301 -9 6s-3.33301 5.5 -3 8.5s3.16602 6.16699 8.49902 9.5c8.66699 6 18.667 11.833 30 17.5
s22 9.83398 32 12.501c2 0.666992 5.16699 0.666992 9.5 0s8.33301 -1.66699 12 -3s6.16699 -3.33301 7.5 -6s0 -6 -4 -10z" />
    <glyph glyph-name="Ucircumflex" unicode="&#xdb;" horiz-adv-x="446" 
d="M375 629c10.667 0 18.8379 -3.50098 24.5049 -10.501s9.66699 -15.5 12 -25.5s3.5 -20.5 3.5 -31.5v-28.5c0 -24.667 -1.5 -55 -4.5 -91s-8 -73.833 -15 -113.5s-16.5 -79 -28.5 -118s-27.167 -74 -45.5 -105s-40.166 -56.167 -65.499 -75.5s-55 -29 -89 -29
c-24.667 0 -45.834 5.16699 -63.501 15.5s-32.334 24 -44.001 41s-20.834 36.5 -27.501 58.5s-11.667 44.5 -15 67.5s-5.33301 45.833 -6 68.5s-1 43 -1 61c0 8.66699 0.166992 21.834 0.5 39.501s1.16602 37.334 2.49902 59.001s3.33301 44 6 67s6.66699 43.833 12 62.5
s12 34 20 46s17.667 18 29 18c6 0 12 -0.5 18 -1.5s11.667 -6.16699 17 -15.5c-12.667 -40 -20.667 -82 -24 -126s-5 -90 -5 -138c0 -8.66699 0.333008 -21.667 1 -39s2.16699 -36.5 4.5 -57.5s5.5 -42.5 9.5 -64.5s9.16699 -42.167 15.5 -60.5s14 -33.333 23 -45
s19.833 -17.5 32.5 -17.5c21.333 0 40.666 10 57.999 30s32.833 45.833 46.5 77.5s25.667 66.667 36 105s18.833 75.666 25.5 111.999s11.667 69.833 15 100.5s5 53.667 5 69c0 14.667 -0.833008 30.5 -2.5 47.5s-4.16699 29.167 -7.5 36.5c0 4.66699 3.66699 7.66699 11 9
s12.666 2 15.999 2zM261.004 727.999c-5.33301 8.66699 -10.999 16.333 -16.999 23l-15 17l-23 -21c-9.33301 -8.66699 -17.333 -15.334 -24 -20.001c-1.33301 -1.33301 -4.16602 -2 -8.49902 -2s-8.83301 0.166992 -13.5 0.5s-8.5 1.33301 -11.5 3s-3.5 3.5 -1.5 5.5
c5.33301 7.33301 12.5 15.5 21.5 24.5s16.167 16.833 21.5 23.5l12.5 14.5c3.66699 4.33301 9.16699 6.83301 16.5 7.5s14.166 -0.5 20.499 -3.5s12 -7 17 -12s9.83301 -10.667 14.5 -17s9 -11.833 13 -16.5l12 -14c4.66699 -5.33301 4.33398 -9.66602 -0.999023 -12.999
c-4.66699 -3.33301 -10.334 -5 -17.001 -5s-12.334 1.66699 -17.001 5z" />
    <glyph glyph-name="Udieresis" unicode="&#xdc;" horiz-adv-x="446" 
d="M375 629c10.667 0 18.8379 -3.50098 24.5049 -10.501s9.66699 -15.5 12 -25.5s3.5 -20.5 3.5 -31.5v-28.5c0 -24.667 -1.5 -55 -4.5 -91s-8 -73.833 -15 -113.5s-16.5 -79 -28.5 -118s-27.167 -74 -45.5 -105s-40.166 -56.167 -65.499 -75.5s-55 -29 -89 -29
c-24.667 0 -45.834 5.16699 -63.501 15.5s-32.334 24 -44.001 41s-20.834 36.5 -27.501 58.5s-11.667 44.5 -15 67.5s-5.33301 45.833 -6 68.5s-1 43 -1 61c0 8.66699 0.166992 21.834 0.5 39.501s1.16602 37.334 2.49902 59.001s3.33301 44 6 67s6.66699 43.833 12 62.5
s12 34 20 46s17.667 18 29 18c6 0 12 -0.5 18 -1.5s11.667 -6.16699 17 -15.5c-12.667 -40 -20.667 -82 -24 -126s-5 -90 -5 -138c0 -8.66699 0.333008 -21.667 1 -39s2.16699 -36.5 4.5 -57.5s5.5 -42.5 9.5 -64.5s9.16699 -42.167 15.5 -60.5s14 -33.333 23 -45
s19.833 -17.5 32.5 -17.5c21.333 0 40.666 10 57.999 30s32.833 45.833 46.5 77.5s25.667 66.667 36 105s18.833 75.666 25.5 111.999s11.667 69.833 15 100.5s5 53.667 5 69c0 14.667 -0.833008 30.5 -2.5 47.5s-4.16699 29.167 -7.5 36.5c0 4.66699 3.66699 7.66699 11 9
s12.666 2 15.999 2zM215.004 748.999c-0.666992 -5.33301 -2.5 -9.5 -5.5 -12.5s-6.5 -5 -10.5 -6s-8 -1.5 -12 -1.5s-7.33301 0.333008 -10 1c-9.33301 2 -15.5 7.16699 -18.5 15.5s-2.16699 16.833 2.5 25.5c2.66699 5.33301 7.5 8.33301 14.5 9s13.167 0.666992 18.5 0
c11.333 -1.33301 18 -4.83301 20 -10.5s2.33301 -12.5 1 -20.5zM290.004 755.999c1.33301 -9.33301 -0.999023 -16.333 -6.99902 -21s-13 -7 -21 -7c-10.667 0 -18.5 3 -23.5 9s-6.16699 14.333 -3.5 25c2 7.33301 5.16699 12 9.5 14s10.166 3 17.499 3
c16 0 25.333 -7.66699 28 -23z" />
    <glyph glyph-name="Yacute" unicode="&#xdd;" horiz-adv-x="352" 
d="M182 -102c-30 0 -50.002 7.49902 -60.002 22.499s-12 30.5 -6 46.5c0.666992 -2 3 -4.33301 7 -7s9.16699 -5 15.5 -7s13.5 -3.16699 21.5 -3.5s17 0.833984 27 3.50098c12 3.33301 21.833 13.5 29.5 30.5s13.667 38 18 63s7.33301 52.667 9 83s2.66699 61.166 3 92.499
s-0.166992 61.666 -1.5 90.999s-2.33301 55 -3 77l-10 -43c-4 -17.333 -8.5 -35.333 -13.5 -54s-10.833 -37.5 -17.5 -56.5s-14.667 -36.167 -24 -51.5s-20.166 -27.666 -32.499 -36.999s-26.166 -14 -41.499 -14c-21.333 0 -38.5 9.33301 -51.5 28s-22.667 42.167 -29 70.5
s-10 59.5 -11 93.5s-0.833008 66.5 0.5 97.5s3.16602 58.333 5.49902 82s4.16602 39.5 5.49902 47.5c2 13.333 5.5 22.5 10.5 27.5s10.5 7.66699 16.5 8s11.833 -0.666992 17.5 -3s10.5 -4.16602 14.5 -5.49902c-3.33301 -16.667 -6.16602 -38.167 -8.49902 -64.5
s-3.66602 -54.5 -3.99902 -84.5s0 -60 1 -90s3.16699 -57 6.5 -81s7.5 -43.5 12.5 -58.5s11.167 -22.167 18.5 -21.5c9.33301 0.666992 18.666 8.66699 27.999 24s18.5 35.5 27.5 60.5s17.333 53 25 84s14.334 62 20.001 93s10.167 60.5 13.5 88.5s5 51.667 5 71
c0 12.667 4 21.5 12 26.5s17 7.66699 27 8s19.833 -1 29.5 -4s16.167 -5.83301 19.5 -8.5c-2.66699 -6 -4.33398 -17.5 -5.00098 -34.5s-0.666992 -37.167 0 -60.5s1.5 -48.833 2.5 -76.5s2.16699 -55.334 3.5 -83.001s2.5 -54.334 3.5 -80.001s1.5 -48.167 1.5 -67.5
c0 -16.667 -0.166992 -36.167 -0.5 -58.5s-1.83301 -45.5 -4.5 -69.5s-6.66699 -47.667 -12 -71s-13.166 -44.166 -23.499 -62.499s-23.5 -33.166 -39.5 -44.499s-35.667 -17 -59 -17zM221.998 764.999c-7.33301 -7.33301 -17.499 -15.168 -30.499 -23.501
s-27.167 -12.833 -42.5 -13.5c-3.33301 0 -6.83301 0.666992 -10.5 2s-6.66699 3.33301 -9 6s-3.33301 5.5 -3 8.5s3.16602 6.16699 8.49902 9.5c8.66699 6 18.667 11.833 30 17.5s22 9.83398 32 12.501c2 0.666992 5.16699 0.666992 9.5 0s8.33301 -1.66699 12 -3
s6.16699 -3.33301 7.5 -6s0 -6 -4 -10z" />
    <glyph glyph-name="agrave" unicode="&#xe0;" horiz-adv-x="365" 
d="M380 180c5.33301 1.33301 10.834 0.998047 16.501 -1.00195s8.5 -5.66699 8.5 -11c-1.33301 -15.333 -6.33301 -32.5 -15 -51.5s-19.667 -36.667 -33 -53s-28.5 -30.166 -45.5 -41.499s-34.167 -17 -51.5 -17c-18 0 -32.167 3.5 -42.5 10.5s-18.333 16.167 -24 27.5
s-9.66699 24 -12 38s-4.5 28 -6.5 42c-4.66699 -12 -10.5 -24.167 -17.5 -36.5s-15.333 -23.5 -25 -33.5s-20.5 -18.333 -32.5 -25s-25 -10 -39 -10c-24 0 -41 7.5 -51 22.5s-15 33.167 -15 54.5c0 18.667 3 41 9 67s14.833 51 26.5 75s26.167 44.5 43.5 61.5
s37.333 25.5 60 25.5c7.33301 0 14.166 -1.16699 20.499 -3.5s12.833 -5.16602 19.5 -8.49902c10 7.33301 21.667 11 35 11c12 0 21.667 -1.83301 29 -5.5s11 -12.5 11 -26.5c0 -19.333 -0.833008 -42.5 -2.5 -69.5s-2.5 -53.167 -2.5 -78.5s2 -46.833 6 -64.5
s12 -26.5 24 -26.5c6.66699 0 15 4.16699 25 12.5s20.167 19 30.5 32s20 26.833 29 41.5s16.167 28.667 21.5 42zM68.001 54.998c6.66699 0 13.8301 3.66895 21.4971 11.002s15.334 16.666 23.001 27.999s15 24.166 22 38.499s13.167 28.166 18.5 41.499
s9.66602 25.833 12.999 37.5s5 20.5 5 26.5v8.5c0 5.66699 -0.666992 11.834 -2 18.501s-4.16602 12.667 -8.49902 18s-10.833 8 -19.5 8c-7.33301 0 -15.666 -5.83301 -24.999 -17.5s-18.5 -26.167 -27.5 -43.5s-17.167 -36.333 -24.5 -57s-12.5 -39.667 -15.5 -57
s-3.16699 -31.833 -0.5 -43.5s9.33398 -17.5 20.001 -17.5zM231.997 398c4 -2.66699 4.83301 -5.99902 2.5 -9.99902s-5.83301 -7.33301 -10.5 -10c-10 -4.66699 -21.333 -4.66699 -34 0c-2.66699 1.33301 -7.33398 3.5 -14.001 6.5s-13.167 6.5 -19.5 10.5
s-12 8.16699 -17 12.5s-7.16699 8.16602 -6.5 11.499c0 4 4 7.16699 12 9.5s13.333 3.5 16 3.5c6.66699 0 12.167 -1.5 16.5 -4.5s9.16602 -6.16699 14.499 -9.5c6.66699 -4 13.334 -7.5 20.001 -10.5s13.334 -6.16699 20.001 -9.5z" />
    <glyph glyph-name="aacute" unicode="&#xe1;" horiz-adv-x="365" 
d="M380 180c5.33301 1.33301 10.834 0.998047 16.501 -1.00195s8.5 -5.66699 8.5 -11c-1.33301 -15.333 -6.33301 -32.5 -15 -51.5s-19.667 -36.667 -33 -53s-28.5 -30.166 -45.5 -41.499s-34.167 -17 -51.5 -17c-18 0 -32.167 3.5 -42.5 10.5s-18.333 16.167 -24 27.5
s-9.66699 24 -12 38s-4.5 28 -6.5 42c-4.66699 -12 -10.5 -24.167 -17.5 -36.5s-15.333 -23.5 -25 -33.5s-20.5 -18.333 -32.5 -25s-25 -10 -39 -10c-24 0 -41 7.5 -51 22.5s-15 33.167 -15 54.5c0 18.667 3 41 9 67s14.833 51 26.5 75s26.167 44.5 43.5 61.5
s37.333 25.5 60 25.5c7.33301 0 14.166 -1.16699 20.499 -3.5s12.833 -5.16602 19.5 -8.49902c10 7.33301 21.667 11 35 11c12 0 21.667 -1.83301 29 -5.5s11 -12.5 11 -26.5c0 -19.333 -0.833008 -42.5 -2.5 -69.5s-2.5 -53.167 -2.5 -78.5s2 -46.833 6 -64.5
s12 -26.5 24 -26.5c6.66699 0 15 4.16699 25 12.5s20.167 19 30.5 32s20 26.833 29 41.5s16.167 28.667 21.5 42zM68.001 54.998c6.66699 0 13.8301 3.66895 21.4971 11.002s15.334 16.666 23.001 27.999s15 24.166 22 38.499s13.167 28.166 18.5 41.499
s9.66602 25.833 12.999 37.5s5 20.5 5 26.5v8.5c0 5.66699 -0.666992 11.834 -2 18.501s-4.16602 12.667 -8.49902 18s-10.833 8 -19.5 8c-7.33301 0 -15.666 -5.83301 -24.999 -17.5s-18.5 -26.167 -27.5 -43.5s-17.167 -36.333 -24.5 -57s-12.5 -39.667 -15.5 -57
s-3.16699 -31.833 -0.5 -43.5s9.33398 -17.5 20.001 -17.5zM235.997 415c-7.33301 -7.33301 -17.499 -15.168 -30.499 -23.501s-27.167 -12.833 -42.5 -13.5c-3.33301 0 -6.83301 0.666992 -10.5 2s-6.66699 3.33301 -9 6s-3.33301 5.5 -3 8.5s3.16602 6.16699 8.49902 9.5
c8.66699 6 18.667 11.833 30 17.5s22 9.83398 32 12.501c2 0.666992 5.16699 0.666992 9.5 0s8.33301 -1.66699 12 -3s6.16699 -3.33301 7.5 -6s0 -6 -4 -10z" />
    <glyph glyph-name="acircumflex" unicode="&#xe2;" horiz-adv-x="365" 
d="M380 180c5.33301 1.33301 10.834 0.998047 16.501 -1.00195s8.5 -5.66699 8.5 -11c-1.33301 -15.333 -6.33301 -32.5 -15 -51.5s-19.667 -36.667 -33 -53s-28.5 -30.166 -45.5 -41.499s-34.167 -17 -51.5 -17c-18 0 -32.167 3.5 -42.5 10.5s-18.333 16.167 -24 27.5
s-9.66699 24 -12 38s-4.5 28 -6.5 42c-4.66699 -12 -10.5 -24.167 -17.5 -36.5s-15.333 -23.5 -25 -33.5s-20.5 -18.333 -32.5 -25s-25 -10 -39 -10c-24 0 -41 7.5 -51 22.5s-15 33.167 -15 54.5c0 18.667 3 41 9 67s14.833 51 26.5 75s26.167 44.5 43.5 61.5
s37.333 25.5 60 25.5c7.33301 0 14.166 -1.16699 20.499 -3.5s12.833 -5.16602 19.5 -8.49902c10 7.33301 21.667 11 35 11c12 0 21.667 -1.83301 29 -5.5s11 -12.5 11 -26.5c0 -19.333 -0.833008 -42.5 -2.5 -69.5s-2.5 -53.167 -2.5 -78.5s2 -46.833 6 -64.5
s12 -26.5 24 -26.5c6.66699 0 15 4.16699 25 12.5s20.167 19 30.5 32s20 26.833 29 41.5s16.167 28.667 21.5 42zM68.001 54.998c6.66699 0 13.8301 3.66895 21.4971 11.002s15.334 16.666 23.001 27.999s15 24.166 22 38.499s13.167 28.166 18.5 41.499
s9.66602 25.833 12.999 37.5s5 20.5 5 26.5v8.5c0 5.66699 -0.666992 11.834 -2 18.501s-4.16602 12.667 -8.49902 18s-10.833 8 -19.5 8c-7.33301 0 -15.666 -5.83301 -24.999 -17.5s-18.5 -26.167 -27.5 -43.5s-17.167 -36.333 -24.5 -57s-12.5 -39.667 -15.5 -57
s-3.16699 -31.833 -0.5 -43.5s9.33398 -17.5 20.001 -17.5zM220.997 378c-5.33301 8.66699 -10.999 16.333 -16.999 23l-15 17l-23 -21c-9.33301 -8.66699 -17.333 -15.334 -24 -20.001c-1.33301 -1.33301 -4.16602 -2 -8.49902 -2s-8.83301 0.166992 -13.5 0.5
s-8.5 1.33301 -11.5 3s-3.5 3.5 -1.5 5.5c5.33301 7.33301 12.5 15.5 21.5 24.5s16.167 16.833 21.5 23.5l12.5 14.5c3.66699 4.33301 9.16699 6.83301 16.5 7.5s14.166 -0.5 20.499 -3.5s12 -7 17 -12s9.83301 -10.667 14.5 -17s9 -11.833 13 -16.5l12 -14
c4.66699 -5.33301 4.33398 -9.66602 -0.999023 -12.999c-4.66699 -3.33301 -10.334 -5 -17.001 -5s-12.334 1.66699 -17.001 5z" />
    </font>
</defs>
</svg>
